<?xml version="1.0" standalone="no"?>
<!DOCTYPE svg PUBLIC "-//W3C//DTD SVG 1.1//EN" "http://www.w3.org/Graphics/SVG/1.1/DTD/svg11.dtd" >
<svg xmlns="http://www.w3.org/2000/svg" xmlns:xlink="http://www.w3.org/1999/xlink" version="1.1">
<metadata>
Created by FontForge 20190801 at Sat May 28 14:09:59 2022
 By www-data
Copyright (c) Typographer Yining Chen, 2022. All rights reserved.
</metadata>
<defs>
<font id="LouisGeorgeCafeLight" horiz-adv-x="558" >
  <font-face 
    font-family="LouisGeorgeCafeLight"
    font-weight="400"
    font-stretch="normal"
    units-per-em="1024"
    panose-1="0 0 0 0 0 0 0 0 0 0"
    ascent="819"
    descent="-205"
    x-height="475"
    cap-height="732"
    bbox="-150 -250 1689 5536"
    underline-thickness="35"
    underline-position="-118"
    unicode-range="U+000D-FB02"
  />
<missing-glyph horiz-adv-x="543" 
d="M51 102h307v528h-307v-528zM0 681h410v-630h-410v630z" />
    <glyph glyph-name=".notdef" horiz-adv-x="543" 
d="M51 102h307v528h-307v-528zM0 681h410v-630h-410v630z" />
    <glyph glyph-name=".null" horiz-adv-x="0" 
 />
    <glyph glyph-name=".null" horiz-adv-x="0" 
 />
    <glyph glyph-name="nonmarkingreturn" unicode="&#xd;" horiz-adv-x="0" 
 />
    <glyph glyph-name="space" unicode=" " horiz-adv-x="254" 
 />
    <glyph glyph-name="exclam" unicode="!" horiz-adv-x="288" 
d="M139 703h48h1q-2 -147 -5 -587h-1h-38h-1q-1 147 -5 587h1zM162 60h1q17 0 26 -16q3 -7 3 -15q0 -14 -12 -24q-8 -5 -16 -5h-3q-12 0 -21 11q-7 9 -7 17v3q0 14 14 24q8 5 15 5z" />
    <glyph glyph-name="quotedbl" unicode="&#x22;" horiz-adv-x="321" 
d="M109 750v-200h-40v200h40zM214 750v-200h-39v200h39z" />
    <glyph glyph-name="numbersign" unicode="#" horiz-adv-x="476" 
d="M175 430q-7 -37 -26 -150h146q6 38 25 150h-145zM175 667q9 -2 38 -7q-8 -48 -32 -191h146q32 192 32 193q38 -6 38 -7l-30 -186h90h1v-38q0 -1 -1 -1h-97q-6 -37 -25 -150h97v-40h-104l-36 -220q-10 2 -40 7q9 53 36 213h-145l-36 -216q-10 2 -39 8q9 52 35 208h-84
l-1 1v39h91v0q7 38 26 150h-91v1v38v0h97q8 50 33 198h1z" />
    <glyph glyph-name="dollar" unicode="$" horiz-adv-x="493" 
d="M263 715v-64q19 0 50 -9q38 -11 70 -39q18 -17 22 -23q13 -16 19 -26q2 -3 2 -5q-12 -5 -35 -17q-6 11 -22 29q-48 51 -117 51q-55 0 -96 -28q-7 -4 -20 -18q-17 -21 -23 -34q-9 -23 -9 -47q0 -45 35 -70q17 -14 57 -29q41 -15 116 -31q27 -7 43 -16q13 -7 29 -18
q17 -14 27 -27q29 -41 29 -91q0 -51 -29 -96q-7 -11 -21 -24q-2 -2 -6 -7q-16 -12 -28 -19q-15 -9 -36 -17q-19 -5 -36 -8q-8 -1 -21 -3v-84v0h-39v0v85q0 1 -9 1q-19 4 -34 8q-17 5 -32 13q-17 8 -35 23q-9 6 -23 21q-18 20 -30 39q-8 14 -13 25q32 15 36 16q7 -15 18 -32
q7 -9 22 -25q16 -15 26 -22q44 -29 96 -29h2q51 0 95 27q9 6 22 18q12 14 19 24q17 32 17 63v4q0 39 -26 71q-12 13 -19 17q-13 9 -23 14q-18 8 -39 13q-90 19 -130 37q-21 8 -41 21q-37 25 -50 59q-9 23 -9 49q0 59 41 106q15 16 23 22q17 12 32 19q13 6 32 12q13 3 29 5h3
v66h39zM225 714h39v0v-772v0h-39h-1v772h1z" />
    <glyph glyph-name="percent" unicode="%" horiz-adv-x="656" 
d="M168 706h1q50 0 87 -37q36 -37 36 -85q0 -53 -40 -92q-24 -20 -48 -27q-19 -5 -35 -5q-49 0 -86 36q-15 16 -20 27q-16 28 -16 57v5q0 40 26 75q14 16 22 21q34 25 73 25zM90 584v-1q0 -35 26 -59q24 -20 53 -20q32 0 58 24q11 13 14 23q7 15 7 30v4q0 28 -22 54
q-25 24 -57 24q-36 0 -61 -30q-18 -22 -18 -49zM487 240q52 0 91 -40q32 -36 32 -82q0 -50 -36 -87q-18 -16 -31 -23q-27 -13 -55 -13h-3q-45 0 -82 33q-16 16 -21 26q-18 30 -18 63v2q0 49 36 86q39 35 87 35zM408 118q0 -36 28 -62q23 -18 51 -18q37 0 64 32q16 22 16 48
q0 34 -28 61q-24 18 -50 18h-5q-25 0 -49 -19q-27 -26 -27 -60zM584 710q-111 -175 -447 -699q0 -1 -1 -1h-48v1q111 174 447 699h49z" />
    <glyph glyph-name="ampersand" unicode="&#x26;" horiz-adv-x="581" 
d="M195 571q0 -27 12 -48q21 -38 61 -100q33 19 67 43q15 10 37 31q16 18 21 26q7 9 10 18q4 11 4 27q0 68 -71 90q-18 6 -35 6q-39 0 -73 -26q-12 -10 -18 -18q-15 -20 -15 -46v-3zM89 160v0q0 -64 47 -98q11 -8 24 -14q20 -8 52 -8h2q99 0 201 88q-98 142 -160 240
q-27 -16 -60 -41q-18 -14 -42 -36q-26 -28 -36 -42q-9 -14 -16 -27q-12 -25 -12 -62zM301 703q41 0 82 -22q11 -5 27 -20q37 -37 37 -93q0 -32 -14 -55q-3 -8 -12 -20q-8 -9 -25 -27q-25 -23 -40 -34q-17 -12 -49 -32q-6 -4 -19 -11q56 -86 127 -190q9 -15 29 -44
q37 37 60 61q2 2 5 6q8 -7 29 -27q-26 -27 -65 -67l-6 -6q14 -21 57 -84q-8 -6 -32 -22q-32 47 -55 79q-27 -23 -50 -38t-48 -28q-63 -29 -122 -29h-7q-53 0 -91 26q-10 5 -26 21t-22 29q-21 37 -21 81v6q0 32 10 61q5 15 12 28q9 16 24 34q24 31 64 65q40 30 73 52
q-38 61 -61 102q-16 30 -16 63v7q0 59 54 99q42 29 91 29z" />
    <glyph glyph-name="quotesingle" unicode="'" horiz-adv-x="165" 
d="M94 750v-200h-39v200h39z" />
    <glyph glyph-name="parenleft" unicode="(" horiz-adv-x="359" 
d="M266 758h15l2 -2v-36q-1 0 -2 -1h-12q-74 0 -127 -142q-37 -105 -37 -233q0 -207 66 -330q33 -57 72 -72q12 -5 36 -5h2l2 -1v-36l-2 -2h-9q-120 0 -181 214q-24 97 -24 199v35q0 192 76 326q56 86 123 86z" />
    <glyph glyph-name="parenright" unicode=")" horiz-adv-x="359" 
d="M216 672q76 -134 76 -326v-35q0 -102 -24 -199q-62 -214 -181 -214h-10l-1 2v36l1 1h3q24 0 36 5q38 15 72 72q65 123 65 330q0 128 -37 233q-52 142 -127 142h-12l-1 1v36q0 1 1 2h15q88 -17 124 -86z" />
    <glyph glyph-name="asterisk" unicode="*" horiz-adv-x="499" 
d="M1685 5536q-1 -4 -4 -14q0 -1 2 -2q2 0 6 2q-1 3 -2 14h-2zM228 752h39v-144h1q33 12 135 48q3 -9 13 -37l-20 -7q-39 -14 -116 -41q21 -29 84 -115q-8 -5 -31 -23h-1q-21 29 -84 115h-1q-1 -1 -85 -115q-11 8 -31 23q20 29 83 115q-34 12 -135 48v0q3 9 13 37v0l136 -48
v144v0z" />
    <glyph glyph-name="plus" unicode="+" horiz-adv-x="415" 
d="M193 225h-158v39h158v157v2h39v-2v-157h157h1v-39h-1h-157v-157h-39v157z" />
    <glyph glyph-name="comma" unicode="," horiz-adv-x="179" 
d="M73 57q15 0 24 -13q6 -8 6 -21q0 -37 -44 -76q-12 -11 -15 -12l-12 15q29 28 29 50q-10 4 -15 15q-3 5 -3 13q0 15 13 24q8 5 17 5z" />
    <glyph glyph-name="hyphen" unicode="-" horiz-adv-x="432" 
d="M38 264h353v0v-39v0h-353v39z" />
    <glyph glyph-name="period" unicode="." horiz-adv-x="211" 
d="M104 60h1q17 0 27 -16q3 -7 3 -15q0 -14 -12 -24q-8 -5 -17 -5h-2q-12 0 -22 11q-6 9 -6 17v3q0 14 13 24q8 5 15 5z" />
    <glyph glyph-name="slash" unicode="/" horiz-adv-x="307" 
d="M256 684h39v0q-64 -177 -255 -708v-1h-39l-1 1l256 708v0z" />
    <glyph glyph-name="zero" unicode="0" horiz-adv-x="649" 
d="M325 673q86 0 160 -64q40 -39 54 -64q57 -93 57 -206q0 -139 -87 -244q-81 -88 -185 -88q-105 0 -188 93q-84 103 -84 238v2q0 148 96 254q79 79 177 79zM92 339q0 -116 68 -207q40 -45 62 -56q49 -29 99 -29h8q75 0 142 65q42 45 62 97q24 64 24 131q0 132 -85 227
q-68 67 -147 67q-94 0 -166 -89q-67 -89 -67 -206z" />
    <glyph glyph-name="one" unicode="1" horiz-adv-x="309" 
d="M76 661h124h1v-665q0 -1 -1 -1h-39v1v626h-85q-1 0 -1 1v38h1z" />
    <glyph glyph-name="two" unicode="2" horiz-adv-x="468" 
d="M235 671q84 0 134 -62q23 -26 36 -61q13 -37 13 -75q0 -48 -21 -86q-53 -61 -160 -183l-140 -160h81h247v-39q-1 0 -1 -1h-366q0 1 -1 1v54q127 144 138 157l117 135q52 58 52 60q15 28 15 63q0 45 -23 86q-41 71 -119 71h-5q-65 0 -104 -44q-12 -16 -18 -27
q-7 -15 -14 -40q-8 -29 -8 -48h-39v1q0 32 14 76q10 28 25 50q51 72 147 72z" />
    <glyph glyph-name="three" unicode="3" horiz-adv-x="496" 
d="M248 676q56 0 104 -35q7 -5 23 -20q25 -29 36 -60q10 -29 10 -58v-3q0 -59 -38 -108q-16 -20 -30 -29q-16 -12 -25 -16v0q20 -9 44 -30q17 -16 22 -22q44 -55 44 -123q0 -65 -42 -120q-16 -20 -31 -31q-55 -43 -124 -43q-70 0 -128 47q-17 15 -24 24q-29 37 -39 81
q-5 21 -5 39v3h1h38h1v0q0 -44 24 -83q7 -9 22 -26q9 -10 18 -15q43 -31 93 -31q46 0 87 27q9 5 25 21q18 19 25 32q19 35 19 72v7q0 40 -24 79q-6 11 -22 27q-13 13 -25 21q-41 24 -83 24h-52v1v39h61q25 0 55 13q12 7 27 19q11 10 17 17q29 39 29 85q0 47 -30 87
q-12 13 -22 21q-37 27 -80 27h-2q-47 0 -86 -32q-46 -42 -46 -105v-2h-39v4q0 62 39 111q16 20 28 28q48 36 105 36z" />
    <glyph glyph-name="four" unicode="4" horiz-adv-x="469" 
d="M80 166h246v436q-19 -34 -77 -136q-32 -57 -128 -226q-12 -21 -41 -74zM316 663h49v0v-496h60l1 -1v-39h-1h-60v-131v0h-38h-1v131h-314v0q28 50 113 201q18 31 71 125q29 51 116 203q1 2 4 7z" />
    <glyph glyph-name="five" unicode="5" horiz-adv-x="544" 
d="M444 663v0v-39v0h-218q-12 -48 -49 -189h1q38 12 77 12q80 0 146 -51q26 -22 39 -40q14 -18 23 -35q26 -52 26 -105v-6q0 -58 -30 -113q-10 -17 -27 -37q-19 -21 -28 -28q-13 -11 -28 -20q-20 -12 -45 -21q-39 -12 -72 -12h-9q-46 0 -94 21q-17 8 -36 21q-13 9 -29 24
q-19 19 -25 28q-13 18 -22 36q-1 3 -4 8l36 16q8 -16 20 -33q7 -11 24 -28q21 -20 37 -28q47 -26 95 -26h5q55 0 105 32q12 8 29 23q20 22 29 36q29 48 29 104q0 70 -46 127q-15 16 -24 23q-36 29 -79 40q-24 5 -45 5q-57 0 -107 -32q-10 -6 -30 -17h-1v1q13 50 52 201
q7 25 27 102h248z" />
    <glyph glyph-name="six" unicode="6" horiz-adv-x="547" 
d="M88 208v-1q0 -67 43 -121q17 -19 29 -28q52 -40 115 -40q68 0 123 47q18 17 22 23q14 19 20 31q21 42 21 88v1q0 68 -45 123q-16 17 -24 24q-52 42 -117 42q-66 0 -119 -44q-19 -16 -27 -26q-41 -55 -41 -119zM284 675q8 -5 33 -20v0q0 -2 -19 -34q-39 -67 -117 -200
q0 -2 -3 -6q46 21 95 21h3q57 0 111 -29q16 -10 34 -25q19 -18 27 -26q17 -23 25 -38q28 -53 28 -107v-7q0 -53 -27 -105q-10 -19 -27 -40q-18 -20 -31 -30q-64 -50 -141 -50h-1q-82 0 -147 54q-19 18 -26 27q-13 16 -20 28q-9 15 -17 35q-16 41 -16 81v7q0 63 37 123
q36 62 108 185q22 39 90 156h1z" />
    <glyph glyph-name="seven" unicode="7" horiz-adv-x="439" 
d="M413 663v-47l-64 -120q-33 -64 -100 -190q-30 -57 -120 -226q-12 -23 -46 -89h-1q-9 5 -34 18v0q26 50 104 198q24 46 97 184q29 55 118 223q1 3 5 10h-345v0v39h386z" />
    <glyph glyph-name="eight" unicode="8" horiz-adv-x="511" 
d="M127 508q0 -52 37 -92q40 -37 92 -37q45 0 83 32q13 12 18 18q27 36 27 77v4q0 37 -23 71q-5 7 -17 19q-16 16 -31 23q-28 13 -56 13h-4q-40 0 -77 -27q-15 -12 -24 -24q-25 -36 -25 -77zM89 180v-2q0 -58 42 -106q16 -16 21 -20q47 -34 104 -34q60 0 109 40q15 13 22 23
q34 44 34 98q0 56 -37 102q-16 16 -22 21q-48 38 -107 38q-52 0 -96 -31q-11 -6 -27 -22q-20 -21 -30 -45q-13 -31 -13 -62zM255 676q64 0 113 -44q18 -17 23 -25q33 -46 33 -99q0 -59 -39 -107q-13 -16 -24 -24q-12 -9 -22 -15v-1q13 -5 29 -15q13 -7 30 -22q18 -19 26 -30
q37 -53 37 -115v-1q0 -63 -40 -118q-6 -9 -21 -23q-16 -16 -31 -25q-53 -33 -114 -33q-73 0 -133 46q-21 19 -29 30q-15 20 -21 33q-23 44 -23 88v5q0 46 23 91q9 15 23 32q17 20 29 29q20 15 32 22q7 4 16 6q-4 3 -11 7q-10 7 -27 23q-12 13 -20 25q-27 43 -27 92
q0 60 41 109q12 14 19 19q49 40 108 40z" />
    <glyph glyph-name="nine" unicode="9" horiz-adv-x="544" 
d="M85 448v0q0 -59 34 -108q6 -11 23 -28q20 -19 33 -26q46 -27 97 -27q57 0 107 33q9 7 27 23q18 20 23 29q11 17 20 41q11 31 11 62v2q0 66 -44 120q-18 20 -27 27q-53 41 -116 41h-1q-61 0 -113 -38q-7 -6 -25 -23q-10 -12 -18 -24q-31 -48 -31 -104zM269 676h7
q52 0 103 -25q18 -11 40 -28q18 -18 25 -26q20 -23 31 -45q24 -51 24 -100v-8q0 -52 -26 -103q-6 -11 -113 -196q-32 -54 -96 -164q-1 0 -26 15q-8 4 -9 5q29 48 85 145q14 24 55 95q-46 -22 -97 -22q-80 0 -144 53q-22 20 -31 31q-15 19 -24 37q-27 52 -27 104v7
q0 62 35 121q43 65 119 92q36 12 69 12z" />
    <glyph glyph-name="colon" unicode=":" horiz-adv-x="228" 
d="M123 475h1q16 0 25 -16q4 -7 4 -14q0 -14 -13 -24q-8 -5 -16 -5h-2q-13 0 -22 11q-7 8 -7 17v3q0 13 15 24q7 4 15 4zM123 60h1q16 0 25 -16q4 -7 4 -15q0 -14 -13 -24q-8 -5 -16 -5h-2q-13 0 -22 11q-7 9 -7 17v3q0 14 15 24q7 5 15 5z" />
    <glyph glyph-name="semicolon" unicode=";" horiz-adv-x="206" 
d="M100 475h1q16 0 26 -16q4 -7 4 -14q0 -14 -13 -24q-8 -5 -17 -5h-1q-13 0 -23 11q-6 8 -6 17v3q0 13 14 24q7 4 15 4zM101 59q15 0 24 -13q6 -9 6 -22q0 -36 -44 -76q-12 -10 -15 -12q-4 5 -12 16q29 28 29 49q-10 5 -15 15q-3 6 -3 13q0 15 13 25q8 5 17 5z" />
    <glyph glyph-name="less" unicode="&#x3c;" horiz-adv-x="435" 
d="M313 494q7 -8 26 -30q-2 -2 -144 -119q-33 -26 -98 -79v-8q6 -5 122 -100q40 -32 120 -98q-24 -29 -26 -30q-44 37 -133 110q-31 24 -122 99v46q41 33 164 134q23 19 91 75z" />
    <glyph glyph-name="equal" unicode="=" horiz-adv-x="420" 
d="M47 340h325v-1v-39v0h-325v40zM47 189h325v0v-38v-1h-325v39z" />
    <glyph glyph-name="greater" unicode="&#x3e;" horiz-adv-x="435" 
d="M213 419q41 -33 164 -134v-46q-30 -25 -121 -99q-34 -28 -135 -110q-1 1 -25 30q40 33 120 98q116 95 122 100v8q-24 20 -97 79q-142 117 -145 119q9 10 25 30q23 -19 92 -75z" />
    <glyph glyph-name="question" unicode="?" horiz-adv-x="483" 
d="M247 65q15 0 25 -14q7 -8 7 -18q0 -17 -16 -28q-8 -4 -15 -4h-4q-13 0 -24 13q-6 9 -6 19q0 15 14 26q8 6 19 6zM251 721q61 0 113 -40q20 -18 28 -28q11 -15 17 -27q27 -47 27 -99q0 -48 -26 -97q-9 -17 -25 -37q-17 -18 -26 -26q-10 -7 -50 -36q-10 -8 -23 -22
q-21 -21 -21 -47q1 -14 1 -41v-82h-1h-5h-33v0v122q0 54 49 93q16 13 48 37q10 6 24 21q17 18 25 32q23 42 23 81v3q0 53 -34 99q-6 6 -18 19q-27 22 -52 30q-21 6 -39 6h-5q-39 0 -76 -26q-9 -5 -24 -20q-20 -22 -31 -49q-11 -30 -11 -60v-18h-1h-38v0v20q0 47 23 94
q9 16 28 39q18 19 26 23q49 36 107 36z" />
    <glyph glyph-name="at" unicode="@" horiz-adv-x="967" 
d="M333 307q0 -59 35 -105q4 -6 16 -16q22 -19 44 -24q13 -3 25 -3h4q38 0 75 28q18 16 24 25q12 16 19 28q21 44 21 88v5q0 46 -24 87q-7 12 -18 24q-35 35 -78 35h-2q-46 0 -86 -38q-15 -16 -21 -26q-10 -14 -16 -28q-18 -39 -18 -80zM502 732h8q78 0 158 -32
q30 -13 63 -34q19 -13 44 -34q21 -19 37 -36q26 -32 37 -52q16 -27 31 -64q23 -64 23 -132q0 -72 -27 -144q-10 -26 -26 -51q-22 -33 -55 -53q-15 -10 -32 -16q-23 -7 -45 -7h-6q-46 0 -83 32q-13 14 -17 22q-17 26 -21 60h-1q-7 -10 -23 -26q-18 -16 -27 -21
q-41 -25 -84 -25q-56 0 -101 40q-17 16 -22 24q-38 54 -38 124q0 60 29 113q6 12 17 28q6 8 21 23q19 17 34 25q39 22 76 22h6q35 0 71 -20q12 -6 31 -23q17 -19 24 -31q12 -19 19 -37v-2q9 27 21 58v0q9 -3 36 -14v-1q-16 -43 -33 -101q-19 -71 -19 -118v-5q0 -60 31 -88
q23 -20 56 -20h1q36 0 61 19q8 5 19 16q12 10 17 18q11 17 17 29q9 17 18 49q15 50 15 97v6q0 86 -43 165q-56 100 -168 148q-71 29 -146 29h-1q-108 0 -205 -59q-20 -13 -44 -32q-11 -9 -33 -32q-23 -25 -37 -45q-17 -25 -26 -43q-40 -81 -40 -170v-2q0 -108 60 -204
q12 -18 32 -42q23 -25 41 -40q23 -19 40 -30q26 -17 51 -28q76 -34 156 -34h4q92 0 179 45q17 -32 18 -34v-1q-29 -16 -69 -29q-64 -20 -125 -20h-10q-77 0 -156 31q-35 15 -64 33q-108 69 -161 185q-36 82 -36 165v9q0 75 31 152q47 114 149 188q24 16 47 28q26 14 64 27
q66 22 131 22z" />
    <glyph glyph-name="A" unicode="A" horiz-adv-x="617" 
d="M285 732h51q3 -3 36 -99q78 -211 232 -633v0h-41q-3 4 -16 44q-18 47 -53 142h-366q-1 -1 -32 -84q-12 -34 -37 -102h-42v0q62 169 246 673q20 55 22 59zM310 687q-42 -115 -169 -462h339q-43 116 -169 462h-1z" />
    <glyph glyph-name="B" unicode="B" horiz-adv-x="545" 
d="M88 732h209q91 0 147 -67q35 -44 35 -103v-17q0 -101 -91 -158q16 -5 39 -19q48 -33 66 -89q8 -26 8 -51v-43q0 -73 -53 -130q-57 -55 -134 -55h-226q-1 0 -2 1v729zM125 692v-289h171q75 0 120 64q24 33 24 84v5q0 97 -92 129q-27 7 -55 7h-168zM125 364v-324h185
q91 0 135 77q17 34 17 74v33q0 89 -89 127q-32 13 -75 13h-173z" />
    <glyph glyph-name="C" unicode="C" horiz-adv-x="676" 
d="M365 732h3q127 0 225 -109q39 -50 48 -75v-1q-8 -4 -34 -16v0q0 3 -27 45q-90 116 -215 116q-116 0 -205 -105q-72 -99 -72 -222q0 -135 88 -237q36 -38 60 -51q63 -37 123 -37h14q74 0 146 53q35 28 58 59q18 26 31 52v0q9 -4 35 -16v-1q-6 -17 -36 -60q-48 -60 -94 -85
q-69 -42 -147 -42q-119 0 -214 95q-52 57 -76 122q-28 74 -28 147v4q0 150 100 264q95 100 217 100z" />
    <glyph glyph-name="D" unicode="D" horiz-adv-x="634" 
d="M125 692v-652h128q99 0 187 75q43 42 57 69q51 85 51 182q0 137 -96 239q-88 87 -208 87h-119zM88 732h161q130 0 232 -100q107 -113 107 -267q0 -129 -80 -234q-36 -44 -67 -66q-34 -24 -61 -36q-56 -22 -72 -22q-24 -7 -79 -7h-141q-1 0 -2 1v730z" />
    <glyph glyph-name="E" unicode="E" horiz-adv-x="483" 
d="M87 732h341v0v-39v-1h-303v-307h246v-38h-246v-307h303v-1v-39v0h-341h-1v732h1z" />
    <glyph glyph-name="F" unicode="F" horiz-adv-x="453" 
d="M87 732h341v0v-39v-1h-303v-307h256v-38h-256v-347v0h-38h-1v732h1z" />
    <glyph glyph-name="G" unicode="G" horiz-adv-x="747" 
d="M368 732h1q128 0 226 -104q37 -43 58 -87v-1q-32 -17 -36 -17q-14 38 -62 90q-83 79 -187 79q-118 0 -208 -104q-75 -99 -75 -223q0 -134 90 -237q49 -48 78 -60q15 -9 50 -20q33 -8 58 -8h15q72 0 145 51q39 28 70 72q41 60 53 128q3 5 7 34h-219q0 1 -1 2v37v0h261v0
q0 -115 -64 -218q-64 -95 -172 -133q-44 -13 -88 -13q-123 0 -219 97q-104 114 -104 268v3q0 152 104 268q98 96 219 96z" />
    <glyph glyph-name="H" unicode="H" horiz-adv-x="610" 
d="M88 732h36l1 -1v-346h359v346q1 0 2 1h37l1 -1v-730l-1 -1h-37l-2 1v346h-359v-346l-1 -1h-36q-1 0 -2 1v730z" />
    <glyph glyph-name="I" unicode="I" horiz-adv-x="212" 
d="M125 732v-732v0h-38h-1v732h39z" />
    <glyph glyph-name="J" unicode="J" horiz-adv-x="486" 
d="M363 732h38v0v-521q0 -86 -54 -151q-16 -17 -23 -22q-32 -26 -69 -34q-16 -4 -28 -4h-48q-35 0 -72 20q-60 35 -89 107q-14 41 -14 78v42v0h39v0v-39q0 -56 33 -105q28 -43 72 -58q17 -5 32 -5h45q32 0 66 23q8 5 23 20q3 3 9 10q12 16 17 27q8 13 13 32q9 27 9 62v518h1
z" />
    <glyph glyph-name="K" unicode="K" horiz-adv-x="573" 
d="M88 732h36l1 -1v-426q94 107 374 427h50v0l-296 -340q-9 -11 -9 -12q102 -126 305 -378v-2h-50q-23 28 -268 334q-5 6 -14 17q-23 -27 -92 -106v-244l-1 -1h-36q-1 0 -2 1v730z" />
    <glyph glyph-name="L" unicode="L" horiz-adv-x="457" 
d="M87 732h38v0v-692h323v-1v-39v0h-361h-1v732h1z" />
    <glyph glyph-name="M" unicode="M" horiz-adv-x="832" 
d="M88 732h65q2 0 22 -53q80 -210 241 -630h1q58 150 230 599q8 21 33 84v0h65q1 0 2 -1v-730q-1 0 -2 -1h-37q-1 0 -3 2v685h-1q-64 -168 -258 -671q-5 -16 -6 -16h-45q-3 3 -51 131q-71 183 -212 549q-1 3 -4 9v0v-688l-1 -1h-37q-3 0 -4 2v729z" />
    <glyph glyph-name="N" unicode="N" horiz-adv-x="679" 
d="M88 732h60q5 -6 44 -72q120 -207 361 -619v0v690q1 0 2 1h37l1 -1v-730l-1 -1h-60q-3 2 -28 48q-126 214 -376 643h-1v-690l-1 -1h-36q-3 0 -4 2v729z" />
    <glyph glyph-name="O" unicode="O" horiz-adv-x="740" 
d="M372 732h3q124 0 223 -103q33 -38 48 -66q50 -94 50 -188v-15q0 -116 -68 -219q-13 -21 -49 -58q-10 -8 -30 -23q-81 -60 -177 -60q-123 0 -219 97q-104 114 -104 268v3q0 152 104 268q98 96 219 96zM89 365q0 -134 90 -237q49 -48 78 -60q15 -9 50 -20q33 -8 58 -8h15
q82 0 162 64q43 41 56 64q58 91 58 196v4q0 126 -80 227q-88 97 -204 97q-118 0 -208 -104q-75 -99 -75 -223z" />
    <glyph glyph-name="P" unicode="P" horiz-adv-x="556" 
d="M88 732h213q97 0 168 -78q56 -70 56 -146v-15q0 -80 -61 -152q-69 -72 -167 -72h-172v-268l-1 -1h-36q-1 0 -2 1v730zM125 692v-383h168q121 0 176 111q17 40 17 77v8q0 72 -53 131q-56 56 -136 56h-172z" />
    <glyph glyph-name="Q" unicode="Q" horiz-adv-x="755" 
d="M89 365q0 -134 90 -237q49 -48 78 -60q15 -9 50 -20q33 -8 58 -8h15q84 0 164 65q5 6 16 17q-24 25 -95 101q7 7 28 26q24 -24 94 -97q69 96 69 212v4q0 126 -80 227q-88 97 -204 97q-118 0 -208 -104q-75 -98 -75 -223zM372 732h3q124 0 223 -103q32 -38 48 -66
q50 -94 50 -188v-15q0 -123 -76 -230q-2 -2 -5 -6v-1q23 -26 94 -101q-16 -17 -28 -27q-93 97 -93 98q-96 -93 -216 -93q-123 0 -219 98q-104 114 -104 267v3q0 153 104 268q98 96 219 96z" />
    <glyph glyph-name="R" unicode="R" horiz-adv-x="549" 
d="M88 732h213q97 0 168 -78q56 -70 56 -146v-15q0 -71 -49 -138q-45 -56 -115 -76q53 -93 159 -278q-1 0 -1 -1h-46q-1 1 -34 62q-40 70 -118 209q-6 -1 -24 -1h-172v-269l-1 -1h-36q-1 0 -2 1v730zM125 692v-383h168q121 0 176 111q17 40 17 77v8q0 72 -53 131
q-56 56 -136 56h-172z" />
    <glyph glyph-name="S" unicode="S" horiz-adv-x="512" 
d="M261 743h6q62 0 117 -36q12 -8 31 -26q19 -20 24 -28q14 -20 21 -33q-12 -5 -36 -16q-8 17 -25 36q-13 16 -26 25q-47 39 -109 39v0q-64 0 -112 -36q-16 -15 -27 -28q-32 -44 -32 -96q0 -51 31 -80q17 -16 31 -24q29 -17 88 -36q36 -11 92 -24q24 -7 41 -16q18 -9 40 -27
q17 -17 21 -23q11 -14 19 -30q19 -41 19 -83v-6q0 -50 -26 -99q-32 -59 -98 -88q-44 -18 -92 -18q-79 0 -143 49q-9 8 -26 24q-22 25 -31 41q-8 12 -19 32q-1 4 -4 12q35 16 36 16q9 -24 24 -46q9 -13 27 -31q17 -17 25 -23q51 -35 111 -35q59 0 109 34q9 6 25 21
q24 28 34 60q9 27 9 54v1q0 57 -37 99q-16 16 -23 19q-12 9 -25 15q-12 5 -30 11q-110 25 -165 52q-20 9 -39 22q-63 47 -63 126v3q0 59 35 112q7 10 18 22q17 17 25 21q12 9 25 16q20 11 41 17q33 9 63 9z" />
    <glyph glyph-name="T" unicode="T" horiz-adv-x="469" 
d="M8 732h453v0v-39h-207v-693h-1h-38v693h-207v39v0z" />
    <glyph glyph-name="U" unicode="U" horiz-adv-x="654" 
d="M87 732h36l1 -1v-467q0 -144 93 -203q18 -10 41 -17q19 -4 56 -4h25q60 0 85 15q57 25 88 100q17 47 17 98v478q1 0 2 1h37l1 -1v-450q0 -100 -25 -150q-9 -26 -27 -48q-61 -83 -164 -83h-52q-128 0 -189 124q-27 61 -27 132v475z" />
    <glyph glyph-name="V" unicode="V" horiz-adv-x="623" 
d="M17 732h42q2 -2 25 -68q159 -431 163 -444q21 -59 64 -175h1q63 172 251 687h1h42q-3 -11 -203 -555l-66 -177v0h-50q-2 0 -16 43q-77 207 -230 621q-22 61 -24 68z" />
    <glyph glyph-name="W" unicode="W" horiz-adv-x="891" 
d="M72 732q1 0 11 -44q49 -206 148 -617v0q47 158 189 630q8 30 10 31h30q2 0 13 -40q70 -229 186 -620h1q40 165 157 660h1h40l2 -1q-44 -182 -176 -726q0 -5 -1 -5h-43q-3 5 -12 42q-62 202 -137 454q-15 51 -46 152h-1l-192 -644q-1 -4 -3 -4h-41q-2 0 -19 76
q-53 218 -158 656v0h41z" />
    <glyph glyph-name="X" unicode="X" horiz-adv-x="557" 
d="M25 732h47q4 -5 116 -188q88 -141 91 -147h1q51 84 205 335h47v-1q-56 -91 -225 -364q56 -92 226 -367h-1h-45q-4 4 -43 67q-55 90 -165 269l-208 -336h-47v0q57 92 227 367q-57 91 -225 363z" />
    <glyph glyph-name="Y" unicode="Y" horiz-adv-x="535" 
d="M15 732h46q4 -4 207 -335h1q52 84 206 335h47v0q-58 -95 -234 -379v-352l-1 -1h-39l-1 1v355q-58 94 -232 375v1z" />
    <glyph glyph-name="Z" unicode="Z" 
d="M48 732h488v-1q-106 -168 -424 -671l-12 -20h416q1 -1 1 -2v-37l-1 -1h-487v0q93 146 369 584l68 108h-418q0 1 -1 2v37z" />
    <glyph glyph-name="bracketleft" unicode="[" horiz-adv-x="376" 
d="M96 757h170v-40h-131v-762h131v-40h-170q-1 0 -1 1v840q0 1 1 1z" />
    <glyph glyph-name="backslash" unicode="\" horiz-adv-x="307" 
d="M40 684q64 -177 255 -708v-1h-39v1l-256 708h1h39v0z" />
    <glyph glyph-name="bracketright" unicode="]" horiz-adv-x="366" 
d="M280 -85h-170v40h131v762h-131v40h170q1 0 1 -1v-840q0 -1 -1 -1z" />
    <glyph glyph-name="asciicircum" unicode="^" horiz-adv-x="521" 
d="M239 699h43q1 -1 89 -144q74 -122 75 -123q-31 -20 -34 -20q-38 63 -116 188q-9 15 -36 59q-27 -46 -111 -182q-10 -16 -41 -65q-32 19 -33 20q38 62 114 185q49 81 50 82z" />
    <glyph glyph-name="underscore" unicode="_" horiz-adv-x="545" 
d="M35 -40h474l1 -1v-39h-1h-474v40z" />
    <glyph glyph-name="grave" unicode="`" horiz-adv-x="352" 
d="M141 917q38 -22 149 -91v-1q-5 -8 -21 -33l-148 92v0q5 9 20 33z" />
    <glyph glyph-name="a" unicode="a" 
d="M264 475h2q101 0 171 -91q3 -4 7 -11v0v96q1 0 2 2h36q0 -1 1 -2v-463l-1 -2h-36q0 1 -2 2v96v0q-39 -63 -115 -91q-32 -11 -65 -11q-99 0 -170 88q-48 68 -48 148v3q0 97 68 171q66 65 150 65zM84 238q0 -98 76 -163q49 -36 104 -36q76 0 132 62q48 59 48 137t-51 138
q-55 60 -129 60q-84 0 -144 -79q-36 -56 -36 -119z" />
    <glyph glyph-name="b" unicode="b" horiz-adv-x="569" 
d="M116 237q0 -78 52 -140q56 -61 132 -61q83 0 141 74q42 58 42 129q0 98 -78 165q-50 36 -106 36q-82 0 -141 -73q-42 -58 -42 -130zM78 732h37l1 -1v-355v0q40 64 116 93q33 11 68 11q94 0 164 -79q58 -72 58 -160v-6q0 -100 -74 -178q-68 -61 -145 -61h-6q-98 0 -170 88
q-3 5 -11 16v0v-99l-1 -1h-37l-2 1v730q1 0 2 1z" />
    <glyph glyph-name="c" unicode="c" horiz-adv-x="478" 
d="M263 475h2q93 0 163 -79q5 -8 16 -24q-30 -20 -32 -20q-60 84 -149 84q-84 0 -143 -79q-36 -56 -36 -119q0 -98 76 -163q48 -36 104 -36q87 0 146 82q2 3 3 5q31 -18 32 -21q-41 -67 -118 -96q-32 -9 -64 -9q-89 0 -157 72q-61 72 -61 164v3q0 97 68 171q66 65 150 65z
" />
    <glyph glyph-name="d" unicode="d" horiz-adv-x="569" 
d="M456 732h36l1 -1v-730l-1 -1h-36q-1 0 -2 1v99q-44 -68 -120 -94q-31 -10 -59 -10h-8q-87 0 -157 73q-62 75 -62 166v4q0 111 84 189q64 52 140 52q101 0 174 -92q3 -4 7 -12h1v355zM88 237q0 -78 51 -140q57 -61 133 -61q82 0 140 74q42 58 42 129q0 98 -78 165
q-49 36 -105 36q-83 0 -142 -73q-41 -59 -41 -130z" />
    <glyph glyph-name="e" unicode="e" horiz-adv-x="512" 
d="M75 274h353q0 18 -20 61q-36 69 -101 92q-27 9 -56 9q-79 0 -136 -70q-29 -36 -40 -92zM251 475h2q89 0 157 -74q61 -73 61 -165h-1h-398q0 -88 66 -152q52 -45 114 -45q83 0 140 74q16 24 25 46q1 1 1 4q37 -12 37 -14q-11 -29 -29 -56q-70 -93 -175 -93q-99 0 -170 88
q-48 68 -48 148v2q0 98 68 171q66 66 150 66z" />
    <glyph glyph-name="f" unicode="f" horiz-adv-x="277" 
d="M277 732h14h1v-39q-1 0 -1 -1h-11q-57 0 -93 -48q-39 -52 -39 -149v-20h143h1v-39h-1h-143v-436v0h-39v0v436h-95h-1v39h1h95v24q0 111 51 176q13 16 25 25q26 20 63 28q16 4 29 4z" />
    <glyph glyph-name="g" unicode="g" horiz-adv-x="509" 
d="M100 309v-4q0 -34 21 -67q6 -9 20 -23q22 -19 46 -28q21 -8 44 -8h2q45 0 83 29q16 15 23 23q25 34 25 77q0 39 -24 73q-14 19 -32 31q-35 24 -76 24v0q-48 0 -87 -32q-16 -15 -19 -20q-9 -12 -14 -24q-12 -26 -12 -51zM168 35q-80 -47 -80 -102v-1q0 -32 26 -61
q14 -14 22 -18q45 -29 113 -29q71 0 119 36q7 4 17 16q16 16 23 37q4 14 4 25v2q0 28 -20 52q-12 11 -17 15q-13 8 -29 13q-23 7 -29 7q-21 4 -38 4q-16 -1 -48 -1q-34 0 -63 5zM229 475h6q48 0 93 -28q10 -7 19 -15v0q12 25 42 37q16 6 31 6h13h1v-39h-1h-11q-26 0 -39 -19
q-6 -13 -6 -21q27 -41 27 -88v-2q0 -57 -39 -104q-10 -13 -24 -25q-16 -12 -28 -17q-39 -20 -77 -20h-7q-42 0 -84 23q-22 -20 -22 -47q0 -19 12 -28q21 -19 102 -19q12 1 35 1q98 0 147 -49q2 -3 7 -9q19 -25 24 -52q2 -9 2 -17v-7q0 -29 -19 -61q-29 -51 -96 -76
q-41 -15 -84 -15h-6q-76 0 -134 36q-41 28 -58 72q-7 21 -7 39v4q0 42 35 84q17 17 21 20q6 5 16 11q-37 22 -37 66v1q0 39 30 70l-13 13q-39 48 -39 108q0 59 39 107q12 13 23 21q13 11 24 17q41 22 82 22z" />
    <glyph glyph-name="h" unicode="h" horiz-adv-x="528" 
d="M78 732h37l1 -1v-318q51 63 136 63h28q110 0 157 -84q18 -35 18 -77v-314q-1 0 -2 -1h-37l-1 1v308q0 88 -72 116q-28 11 -69 11h-18q-97 0 -129 -68q-11 -24 -11 -57v-310l-1 -1h-37l-2 1v730q1 0 2 1z" />
    <glyph glyph-name="i" unicode="i" horiz-adv-x="196" 
d="M118 475v-475h-1h-38v0v475h39zM96 732h4q12 0 23 -11q7 -9 7 -18v-6q0 -11 -11 -21q-9 -8 -20 -8q-18 0 -28 16q-4 8 -4 15v2q0 15 13 25q8 6 16 6z" />
    <glyph glyph-name="j" unicode="j" horiz-adv-x="229" 
d="M111 475h38h1v-447q0 -76 -18 -124q-4 -15 -11 -28q-8 -16 -19 -30q-3 -6 -17 -19q-17 -15 -30 -23q-35 -20 -75 -20h-1v1v39v0q56 0 92 47q10 13 15 24q25 50 25 120v460v0zM128 732h4q12 0 23 -11q7 -9 7 -18v-6q0 -11 -11 -21q-9 -8 -20 -8q-18 0 -28 16q-4 8 -4 15v2
q0 15 13 25q8 6 16 6z" />
    <glyph glyph-name="k" unicode="k" horiz-adv-x="447" 
d="M78 732h37l1 -1v-494q63 60 251 239h57v-1q-53 -51 -212 -202v0q54 -68 215 -272v-1h-51q-3 3 -72 92q-109 139 -120 154h-1q-17 -16 -67 -64v-181l-1 -1h-37l-2 1v730q1 0 2 1z" />
    <glyph glyph-name="l" unicode="l" horiz-adv-x="192" 
d="M77 732h39v0v-732v0h-39h-1v732h1z" />
    <glyph glyph-name="m" unicode="m" horiz-adv-x="867" 
d="M248 475h34q97 0 147 -70q1 -3 4 -9h2q22 45 85 68q32 11 67 11h33q93 0 144 -65q28 -39 28 -97v-312l-1 -1h-36q-1 0 -2 1v307q0 87 -68 116q-31 12 -70 12h-23q-97 0 -129 -71q-9 -23 -9 -53v-311l-2 -1h-36l-1 1v308q0 94 -83 119q-24 8 -56 8h-21q-97 0 -129 -68
q-10 -23 -10 -58v-309l-1 -1h-37l-2 1v466q1 0 2 1h37l1 -1v-54q51 62 132 62z" />
    <glyph glyph-name="n" unicode="n" horiz-adv-x="528" 
d="M248 475h34q96 0 146 -70q26 -38 26 -90v-314l-2 -1h-36l-1 1v308q0 94 -83 119q-24 8 -56 8h-21q-97 0 -129 -68q-10 -23 -10 -58v-309l-1 -1h-37l-2 1v466q1 0 2 1h37l1 -1v-54q51 62 132 62z" />
    <glyph glyph-name="o" unicode="o" horiz-adv-x="527" 
d="M263 475h2q98 0 167 -86q50 -69 50 -148v-7q0 -95 -70 -170q-64 -64 -149 -64q-99 0 -170 88q-48 68 -48 148v3q0 97 68 171q66 65 150 65zM84 238q0 -98 76 -163q48 -36 104 -36q75 0 131 62q49 59 49 137t-52 138q-55 60 -129 60q-84 0 -143 -79q-36 -56 -36 -119z" />
    <glyph glyph-name="p" unicode="p" horiz-adv-x="566" 
d="M296 475h3q98 0 169 -87q51 -70 51 -149v-8q0 -96 -71 -172q-65 -64 -152 -64q-100 0 -172 89q-2 5 -8 14v0v-312q-1 0 -2 -2h-36q0 1 -2 2v677q1 0 2 1h36l2 -1v-91v0q40 64 115 92q31 11 65 11zM116 235q0 -99 76 -164q50 -38 105 -38q76 0 133 64q50 60 50 138
t-52 140q-56 61 -131 61q-85 0 -145 -80q-36 -56 -36 -121z" />
    <glyph glyph-name="q" unicode="q" horiz-adv-x="566" 
d="M336 464q75 -28 115 -92v0v91l1 1h36q1 0 2 -1v-677l-2 -2h-36q0 1 -1 2v312v0q-3 -3 -9 -14q-72 -89 -171 -89q-87 0 -153 64q-70 76 -70 172v8q0 79 50 149q71 87 170 87h3q16 -3 65 -11zM415 356q-60 80 -146 80q-74 0 -130 -61q-52 -62 -52 -140t49 -138
q57 -64 133 -64q55 0 106 38q76 65 76 164q0 65 -36 121z" />
    <glyph glyph-name="r" unicode="r" horiz-adv-x="356" 
d="M258 479q47 0 81 -23q-8 -45 -10 -45q-40 24 -75 24h-4q-46 0 -87 -29q-24 -22 -30 -35q-17 -33 -17 -67v-303l-1 -1h-37l-2 1v467h2h37h1v-53v0q0 2 23 21q50 43 119 43z" />
    <glyph glyph-name="s" unicode="s" horiz-adv-x="417" 
d="M214 484h1q70 0 121 -47q16 -16 21 -25q5 -5 6 -8q-12 -7 -35 -19q-14 23 -41 40q-33 19 -72 19q-55 0 -91 -28q-14 -13 -16 -19q-15 -21 -15 -44v-4q0 -32 31 -50q15 -10 44 -20q39 -12 99 -23q24 -7 38 -15q13 -5 27 -16q12 -10 20 -20q24 -33 24 -72q0 -44 -31 -82
q-12 -14 -18 -19q-18 -12 -30 -17q-41 -20 -86 -20q-63 0 -114 35q-9 6 -24 22q-2 2 -6 7q-15 17 -22 29q-2 5 -5 10q19 10 36 18q25 -51 77 -71q28 -10 58 -10q45 0 82 22q27 17 38 47q5 15 5 28v3q0 30 -24 55q-19 16 -43 24q-11 3 -49 10q-75 17 -104 35q-63 30 -63 93
q0 45 34 82q13 14 21 18q44 32 106 32z" />
    <glyph glyph-name="t" unicode="t" horiz-adv-x="331" 
d="M109 732h39v0v-257h141v0v-39v0h-141v-311q0 -36 18 -60q8 -10 14 -13q19 -13 36 -13h2q22 0 58 16q4 2 5 2q6 -11 17 -35q-12 -6 -39 -15q-24 -7 -39 -7h-6q-25 0 -53 16q-6 4 -20 17q-15 17 -22 38q-10 26 -10 52v313h-92h-1v39h1h92v257z" />
    <glyph glyph-name="u" unicode="u" horiz-adv-x="528" 
d="M76 475h36q0 -1 1 -2v-309q0 -90 81 -117q26 -7 53 -7h32q85 0 121 62q12 26 12 63v308q1 0 1 2h38q0 -1 1 -2v-465q-1 0 -1 -1h-38l-1 1v53q-52 -61 -129 -61h-40q-83 0 -135 57q-34 42 -34 103v313z" />
    <glyph glyph-name="v" unicode="v" horiz-adv-x="475" 
d="M17 475h43q1 0 16 -40q54 -130 161 -391h1q44 108 177 431h43v0q-47 -115 -190 -460q-1 -4 -7 -15h-48q-2 2 -48 116q-131 315 -148 359v0z" />
    <glyph glyph-name="w" unicode="w" horiz-adv-x="697" 
d="M68 475q3 -2 18 -55q39 -125 117 -376q1 3 28 89l108 342h20q2 0 12 -36q41 -132 124 -395q1 3 28 89l105 342h1h41l1 -2q-37 -118 -149 -473h-54q-1 0 -15 45q-35 111 -104 332q-1 -1 -17 -53q-33 -108 -101 -324v0h-55q-1 0 -25 80q-41 131 -124 395v0h41z" />
    <glyph glyph-name="x" unicode="x" horiz-adv-x="473" 
d="M81 475q39 -51 155 -203v0q39 51 155 203h50v0q-44 -58 -177 -231q47 -61 187 -243v-1h-50q-41 54 -165 216v0q-42 -54 -165 -216h-49l-2 1q47 61 187 243q-44 57 -176 231v0h50z" />
    <glyph glyph-name="y" unicode="y" horiz-adv-x="472" 
d="M17 475h43q1 0 11 -26q54 -135 164 -405h1q44 108 176 431h41v0h1q-71 -173 -282 -690q-1 0 -1 -1h-42v1q21 52 85 207q-49 121 -197 483v0z" />
    <glyph glyph-name="z" unicode="z" horiz-adv-x="465" 
d="M59 475h364l1 -2q-9 -12 -304 -433h292l2 -2v-37l-2 -1h-368v0q77 109 305 436h-290l-2 1v36z" />
    <glyph glyph-name="braceleft" unicode="{" horiz-adv-x="395" 
d="M281 767h22v-39v0h-26q-52 0 -81 -33q-16 -21 -16 -55v-244q0 -40 -40 -76q-2 -1 -5 -4q29 -20 42 -62q3 -10 3 -17v-244q0 -65 59 -84q21 -5 37 -5h26l1 -1v-36q0 -2 -2 -2q-7 0 -22 -1q-74 0 -115 51q-23 33 -23 74v244q0 33 -41 59q-22 10 -22 11v26l22 11
q27 15 38 43q3 9 3 14v246q0 70 58 105q34 19 82 19z" />
    <glyph glyph-name="bar" unicode="|" horiz-adv-x="189" 
d="M75 0v699l1 1h38l1 -1v-699h-40z" />
    <glyph glyph-name="braceright" unicode="}" horiz-adv-x="395" 
d="M196 748q58 -35 58 -105v-246q0 -5 3 -14q11 -28 38 -43q7 -4 22 -11v-26q0 -1 -22 -11q-41 -26 -41 -59v-244q0 -41 -23 -74q-42 -51 -115 -51q-7 1 -22 1q-2 0 -2 2v36l1 1h26q17 0 37 5q59 19 59 84v244q0 7 2 17q14 42 43 62q-2 1 -5 4q-40 36 -40 76v244
q0 34 -16 55q-29 33 -82 33h-25v0v39h22q21 -5 82 -19z" />
    <glyph glyph-name="asciitilde" unicode="~" horiz-adv-x="424" 
d="M364 335q-18 -16 -32 -21q-23 -9 -42 -9h-4q-8 0 -16 1q-15 0 -66 23q-51 18 -70 18q-17 0 -36 -9q-11 -6 -29 -19q3 14 8 53q12 11 25 16q20 9 37 9q20 0 60 -14q60 -31 89 -31t45 13q18 10 36 24q-3 -23 -5 -54z" />
    <glyph glyph-name="nonbreakingspace" unicode="&#xa0;" horiz-adv-x="254" 
 />
    <glyph glyph-name="exclamdown" unicode="&#xa1;" horiz-adv-x="288" 
d="M187 0h-48h-1q1 147 5 587l1 1h38q0 -1 1 -1q1 -147 5 -587h-1zM163 644v0q-18 0 -27 16q-3 6 -3 13q0 15 12 24q8 6 17 6h2q12 0 22 -11q6 -8 6 -17v-3q0 -14 -13 -24q-8 -4 -16 -4z" />
    <glyph glyph-name="cent" unicode="&#xa2;" horiz-adv-x="478" 
d="M225 582v64h40v-61q93 0 163 -79q5 -8 16 -24q-30 -20 -32 -20q-59 84 -147 85v-398q86 0 145 83q2 3 3 4q31 -18 32 -20q-41 -68 -118 -96q-31 -9 -62 -9v-59h-1h-38h-1v62q-65 12 -119 69q-61 72 -61 164v2q0 98 68 171q51 51 112 62zM225 153v390q-60 -14 -105 -75
q-36 -56 -36 -120q0 -97 76 -163q31 -23 65 -32z" />
    <glyph glyph-name="sterling" unicode="&#xa3;" horiz-adv-x="587" 
d="M324 668q56 0 107 -34q10 -6 21 -18l-28 -28q-17 16 -30 22q-34 18 -70 18q-53 0 -100 -39q-33 -30 -33 -78v-3q0 -44 29 -100l20 -45h174h1v-39h-1h-163q2 -15 2 -25q0 -71 -69 -154q-12 -15 -39 -44v0q23 6 47 6q60 0 103 -42q44 -38 87 -38q59 0 126 70q9 -9 28 -27
q-77 -82 -155 -82q-62 0 -122 56q-29 24 -68 24q-56 0 -130 -46q-3 -2 -10 -7v0q-6 7 -24 30q29 26 71 65q39 39 50 53q65 77 65 134v3q0 10 -2 24h-127h-1v39h1h113q-5 10 -22 47q-23 53 -23 96v6q0 42 21 78q6 9 15 20q16 14 28 22q50 36 108 36z" />
    <glyph glyph-name="currency" unicode="&#xa4;" horiz-adv-x="648" 
d="M77 370q0 -85 55 -155q23 -26 40 -39q20 -15 33 -23q56 -30 119 -30h1q79 0 145 48q11 8 30 25q20 23 29 36q43 64 43 139q0 78 -48 145q-8 10 -24 28q-20 20 -33 28q-66 45 -143 45q-75 0 -140 -44q-13 -8 -32 -25q-19 -20 -25 -29q-12 -18 -19 -30q-31 -56 -31 -119z
M60 657q18 -18 72 -74q21 17 36 28q72 45 156 45q92 0 168 -53q12 -10 25 -20q24 25 72 74q7 -6 28 -27q-18 -19 -73 -76v-1q16 -18 26 -35q41 -69 41 -147v-2q0 -86 -50 -161q-4 -6 -13 -17q17 -18 69 -72l-28 -28v0q-17 18 -68 70q-21 -18 -37 -29q-24 -16 -44 -24
q-56 -24 -112 -24h-7q-69 0 -136 36q-19 10 -42 28q-5 5 -15 13q-17 -17 -68 -70q-1 0 -28 28l69 72q-14 18 -25 35q-38 67 -38 143v3q0 81 46 153q7 12 20 29q-24 25 -72 76q7 7 28 27z" />
    <glyph glyph-name="yen" unicode="&#xa5;" horiz-adv-x="562" 
d="M61 666q36 -43 144 -170q1 0 77 -90l117 138q26 31 102 121q1 1 2 1l29 -25q0 -1 -4 -6q-54 -64 -161 -191q-17 -19 -66 -76v-53h184l1 -1v-38q0 -1 -1 -1h-184v-66h184h1v-38q0 -1 -1 -1h-184v-169h-39v169h-183q-1 0 -1 1v38h1h183v66h-183q-1 0 -1 1v38l1 1h183v53
q-35 41 -138 164q-10 11 -87 101l-5 7q9 9 29 26z" />
    <glyph glyph-name="brokenbar" unicode="&#xa6;" horiz-adv-x="240" 
d="M100 425v324v1h39l1 -1v-324h-40zM100 -250v325v0h39h1v-325h-40z" />
    <glyph glyph-name="section" unicode="&#xa7;" horiz-adv-x="408" 
d="M99 365v-1q0 -35 25 -64q15 -13 22 -17q7 -6 18 -10q20 -7 40 -7h3q40 0 72 27q13 12 16 18q17 25 17 52v2q0 39 -32 70q-32 28 -75 28q-41 0 -73 -27q-33 -31 -33 -71zM209 716q59 0 102 -41q18 -19 25 -31q4 -7 5 -11q-12 -5 -36 -17q-4 10 -17 25q-32 35 -80 35
q-32 0 -60 -15q-11 -5 -23 -17q-20 -23 -20 -52v0q0 -37 37 -59q15 -10 46 -21q27 -8 60 -16q17 -5 32 -12q12 -7 25 -18q17 -17 19 -20q5 -6 12 -19q16 -31 16 -63q0 -53 -40 -95q-17 -16 -32 -23q-9 -6 -11 -6q6 -2 17 -8q11 -7 26 -19q33 -31 33 -74v-6q0 -32 -21 -62
q-4 -7 -17 -20q-15 -14 -25 -18q-9 -5 -27 -12q-27 -8 -52 -8q-67 0 -112 51q-18 21 -22 32q31 15 36 16q4 -9 19 -27q32 -32 76 -32h4q38 0 68 20q12 10 21 22q12 20 12 41v1q0 36 -33 57q-13 9 -34 17q-25 10 -74 21q-44 13 -73 46q-23 27 -29 58q-3 15 -3 26v5
q0 38 25 75q5 7 19 21q4 3 12 10q16 11 26 15q-12 6 -25 15q-51 34 -51 87v5q0 39 28 73l15 15q15 10 25 16q35 17 76 17z" />
    <glyph glyph-name="dieresis" unicode="&#xa8;" horiz-adv-x="452" 
d="M150 862h1q17 0 26 -16q3 -6 3 -14q0 -15 -12 -24q-8 -5 -16 -5h-3q-12 0 -21 10q-7 9 -7 18v2q0 15 14 24q8 5 15 5zM300 862h1q16 0 26 -16q4 -6 4 -14q0 -15 -13 -24q-8 -5 -17 -5h-1q-13 0 -23 10q-6 9 -6 18v2q0 15 14 24q7 5 15 5z" />
    <glyph glyph-name="copyright" unicode="&#xa9;" horiz-adv-x="957" 
d="M128 342v-2q0 -106 60 -197q11 -16 29 -38q24 -24 32 -30q19 -17 33 -25q26 -18 54 -30q69 -30 140 -30h4q97 0 185 53q101 65 144 177q22 60 22 121q0 104 -59 194q-12 18 -37 47q-26 26 -35 33q-21 17 -38 26q-86 52 -184 52q-110 0 -204 -66q-16 -11 -41 -34
q-26 -26 -36 -41q-17 -23 -25 -40q-44 -80 -44 -170zM479 732q124 0 228 -72q18 -14 45 -39q29 -29 39 -45q17 -20 30 -45q49 -90 49 -190q0 -113 -62 -211q-13 -22 -36 -48q-24 -26 -40 -39q-24 -20 -41 -31q-27 -17 -54 -29q-77 -33 -153 -33h-11q-78 0 -158 35
q-30 15 -64 38q-16 10 -45 37q-30 31 -39 45q-20 27 -31 47q-16 29 -29 65q-19 62 -19 119v9q0 89 43 175q14 28 38 60q11 15 28 33q27 26 39 35q25 20 53 36q90 48 190 48zM496 579h3q93 0 162 -79q6 -8 17 -24q-30 -20 -33 -20q-58 84 -148 84q-84 0 -144 -79
q-36 -56 -36 -119q0 -98 76 -163q50 -36 104 -36q87 0 147 82q2 3 3 5q30 -18 32 -21q-40 -67 -119 -96q-32 -9 -64 -9q-88 0 -156 72q-61 72 -61 164v3q0 97 68 171q66 65 149 65z" />
    <glyph glyph-name="ordfeminine" unicode="&#xaa;" horiz-adv-x="324" 
 />
    <glyph glyph-name="guillemotleft" unicode="&#xab;" horiz-adv-x="555" 
d="M59 243q17 12 145 96q14 9 41 28q6 -9 23 -34q-5 -2 -155 -101q-4 -3 -11 -8q41 -27 166 -108v0q-21 -32 -23 -33l-186 123v37zM259 243q17 12 145 96q14 9 41 28q6 -9 23 -34q-5 -2 -155 -101q-4 -3 -11 -8q41 -27 166 -108v0q-21 -32 -23 -33l-186 123v37z" />
    <glyph glyph-name="logicalnot" unicode="&#xac;" horiz-adv-x="475" 
d="M360 351h-285v39h325v-1v-189h-40v151z" />
    <glyph glyph-name="uni00ad" unicode="&#xad;" horiz-adv-x="432" 
d="M38 264h353v0v-39v0h-353v39z" />
    <glyph glyph-name="registered" unicode="&#xae;" horiz-adv-x="575" 
d="M103 532v-1q0 -55 32 -103q5 -9 15 -20q13 -12 17 -16q10 -9 17 -13q14 -10 28 -16q37 -16 74 -16h2q52 0 97 28q54 34 76 93q11 32 11 64q0 55 -30 101q-6 11 -20 26q-14 13 -18 17q-12 8 -20 14q-45 27 -97 27q-58 0 -107 -35q-8 -6 -22 -18q-14 -13 -19 -21
q-8 -12 -13 -21q-23 -42 -23 -90zM288 732q63 0 116 -37q9 -7 23 -19q15 -16 20 -24q9 -11 16 -24q25 -45 25 -96q0 -58 -32 -108q-7 -11 -19 -24q-12 -14 -20 -20q-13 -11 -21 -16q-14 -9 -28 -15q-39 -17 -78 -17h-5q-41 0 -81 18q-16 7 -33 19q-8 6 -23 19q-15 16 -20 24
q-11 13 -16 23q-8 16 -15 33q-9 32 -9 61v5q0 46 21 90q8 13 20 30q6 7 15 17q13 13 20 18q12 10 27 18q45 25 97 25zM244 651v-139h58q7 0 18 4q23 9 34 32q7 16 7 34v5q0 27 -17 45q-6 7 -9 8q-16 11 -35 11h-56zM228 666h72q20 0 39 -11q5 -3 11 -8q7 -8 10 -11
q3 -5 5 -9q10 -18 10 -39v-7q0 -26 -15 -49q-15 -22 -39 -31q15 -29 43 -88q3 -7 13 -29h-17l-3 7q-8 17 -24 52q-7 13 -26 55q-4 -1 -11 -1h-53v-113h-15v282z" />
    <glyph glyph-name="macron" unicode="&#xaf;" horiz-adv-x="335" 
 />
    <glyph glyph-name="degree" unicode="&#xb0;" horiz-adv-x="369" 
d="M156 715h5q35 0 67 -24q9 -8 16 -16q25 -31 25 -70q0 -45 -33 -78q-34 -31 -77 -31q-44 0 -79 32q-16 20 -21 35q-10 20 -10 40v5q0 36 26 68q12 13 19 18q30 21 62 21zM93 605v0q0 -31 27 -53q18 -13 38 -13h2q29 0 52 26q13 19 13 39v3q0 26 -21 48q-20 17 -44 17h-1
q-33 0 -55 -29q-11 -18 -11 -38z" />
    <glyph glyph-name="plusminus" unicode="&#xb1;" horiz-adv-x="431" 
d="M38 0h354v0v-39v-1h-354v40zM196 225h-158v39h158v157v2h39q0 -1 1 -2v-157h156h1v-39h-1h-156v-157h-40v157z" />
    <glyph glyph-name="twosuperior" unicode="&#xb2;" horiz-adv-x="507" 
 />
    <glyph glyph-name="threesuperior" unicode="&#xb3;" horiz-adv-x="507" 
 />
    <glyph glyph-name="acute" unicode="&#xb4;" horiz-adv-x="352" 
d="M290 884v0l-148 -92q-5 9 -21 33v1q37 23 148 91q6 -8 21 -33z" />
    <glyph glyph-name="mu" unicode="&#xb5;" horiz-adv-x="539" 
d="M80 475h40v-311q0 -90 80 -117q25 -7 53 -7h32q85 0 121 62q13 26 13 63v308l1 2h36q1 -1 1 -2v-465l-1 -1h-36q-1 0 -1 1v53q-52 -61 -130 -61h-40q-78 0 -129 52v-252h-1h-39v0v675z" />
    <glyph glyph-name="paragraph" unicode="&#xb6;" horiz-adv-x="538" 
d="M232 100v244q-83 4 -131 49t-48 116q0 75 51 120q52 46 136 46h209v-39q0 -1 -1 -1h-57v-535h-40v535h-79v-535h-40z" />
    <glyph glyph-name="periodcentered" unicode="&#xb7;" horiz-adv-x="301" 
d="M150 396h1q17 0 26 -16q3 -7 3 -14q0 -14 -12 -24q-8 -6 -16 -6h-3q-12 0 -21 12q-7 8 -7 16v4q0 13 14 24q8 4 15 4z" />
    <glyph glyph-name="cedilla" unicode="&#xb8;" horiz-adv-x="369" 
d="M160 17q33 -6 35 -7q-3 -10 -7 -31q40 0 55 -34q5 -13 5 -25q0 -31 -25 -52q-19 -14 -43 -14q-35 0 -59 32v1q1 0 15 10l13 10q14 -18 31 -18q16 0 28 14q5 8 5 16v2q0 10 -6 18q-7 5 -16 5h-3q-11 0 -28 -8q-6 -1 -17 -5v1q4 21 17 84v1v0z" />
    <glyph glyph-name="onesuperior" unicode="&#xb9;" horiz-adv-x="507" 
 />
    <glyph glyph-name="ordmasculine" unicode="&#xba;" horiz-adv-x="359" 
 />
    <glyph glyph-name="guillemotright" unicode="&#xbb;" horiz-adv-x="555" 
d="M496 206q-47 -31 -187 -123q-1 1 -22 33v0q41 27 165 108q-2 2 -11 8q-149 99 -154 101q7 11 22 34q10 -7 42 -28q128 -84 145 -96v-37zM296 206q-47 -31 -187 -123q-1 1 -22 33v0q41 27 165 108q-2 2 -11 8q-149 99 -154 101q7 11 22 34q10 -7 42 -28q128 -84 145 -96
v-37z" />
    <glyph glyph-name="onequarter" unicode="&#xbc;" horiz-adv-x="854" 
 />
    <glyph glyph-name="onehalf" unicode="&#xbd;" horiz-adv-x="982" 
 />
    <glyph glyph-name="threequarters" unicode="&#xbe;" horiz-adv-x="854" 
 />
    <glyph glyph-name="questiondown" unicode="&#xbf;" horiz-adv-x="483" 
d="M236 657q-16 0 -26 14q-6 9 -6 18q0 18 16 28q8 4 15 4h3q14 0 25 -13q5 -8 5 -19q0 -16 -13 -26q-9 -6 -19 -6zM232 1q-62 0 -113 40q-20 19 -28 28q-11 15 -18 27q-26 48 -26 100q0 48 25 96q9 17 25 37q17 19 27 27q9 7 49 36q11 8 23 21q21 22 21 47q0 14 -1 41v83h1
h6h33v0v-123q0 -53 -49 -93q-16 -12 -49 -36q-10 -7 -24 -21q-17 -19 -25 -33q-22 -42 -22 -81v-2q0 -54 33 -99q6 -7 19 -20q26 -22 52 -29q21 -7 38 -7h6q38 0 76 26q9 6 23 20q21 22 31 50q11 29 11 60v17h1h39v0v-20q0 -47 -24 -93q-8 -16 -28 -40q-18 -19 -25 -23
q-50 -36 -107 -36z" />
    <glyph glyph-name="Agrave" unicode="&#xc0;" horiz-adv-x="617" 
d="M247 917q37 -22 149 -91v-1q-6 -8 -21 -33l-148 92v0q5 9 20 33zM285 732h51q3 -3 36 -99q78 -211 232 -633v0h-41q-3 4 -16 44q-18 47 -53 142h-366q-1 -1 -32 -84q-12 -34 -37 -102h-42v0q62 169 246 673q20 55 22 59zM310 687q-42 -115 -169 -462h339
q-43 116 -169 462h-1z" />
    <glyph glyph-name="Aacute" unicode="&#xc1;" horiz-adv-x="617" 
d="M227 825v1q37 23 148 91q5 -8 21 -33v0q-38 -23 -149 -92q-5 9 -20 33zM285 732h51q3 -3 36 -99q78 -211 232 -633v0h-41q-3 4 -16 44q-18 47 -53 142h-366q-1 -1 -32 -84q-12 -34 -37 -102h-42v0q62 169 246 673q20 55 22 59zM310 687q-42 -115 -169 -462h339
q-43 116 -169 462h-1z" />
    <glyph glyph-name="Acircumflex" unicode="&#xc2;" horiz-adv-x="617" 
d="M296 935h30q25 -30 98 -117q-7 -6 -29 -26h-1q-21 25 -83 100q-80 -96 -84 -100q-21 18 -30 26zM285 732h51q3 -3 36 -99q78 -211 232 -633v0h-41q-3 4 -16 44q-18 47 -53 142h-366q-1 -1 -32 -84q-12 -34 -37 -102h-42v0q62 169 246 673q20 55 22 59zM310 687
q-42 -115 -169 -462h339q-43 116 -169 462h-1z" />
    <glyph glyph-name="Atilde" unicode="&#xc3;" horiz-adv-x="617" 
d="M406 836q-10 -11 -20 -16q-15 -8 -31 -8q-15 0 -50 15q-34 15 -48 15q-16 0 -30 -9q-9 -5 -20 -19v45q9 11 19 16q14 9 31 9q16 0 50 -16q34 -15 48 -15q16 0 29 9q10 5 22 19v-45zM285 732h51q3 -3 36 -99q78 -211 232 -633v0h-41q-3 4 -16 44q-18 47 -53 142h-366
q-1 -1 -32 -84q-12 -34 -37 -102h-42v0q62 169 246 673q20 55 22 59zM310 687q-42 -115 -169 -462h339q-43 116 -169 462h-1z" />
    <glyph glyph-name="Adieresis" unicode="&#xc4;" horiz-adv-x="617" 
d="M235 867h1q16 0 26 -16q3 -7 3 -14q0 -14 -12 -24q-8 -5 -17 -5h-1q-13 0 -23 11q-6 8 -6 17v3q0 13 14 24q8 4 15 4zM385 867h1q17 0 26 -16q4 -7 4 -14q0 -14 -13 -24q-8 -5 -16 -5h-3q-12 0 -21 11q-7 8 -7 17v3q0 13 14 24q7 4 15 4zM285 732h51q3 -3 36 -99
q78 -211 232 -633v0h-41q-3 4 -16 44q-18 47 -53 142h-366q-1 -1 -32 -84q-12 -34 -37 -102h-42v0q62 169 246 673q20 55 22 59zM310 687q-42 -115 -169 -462h339q-43 116 -169 462h-1z" />
    <glyph glyph-name="Aring" unicode="&#xc5;" horiz-adv-x="617" 
d="M280 796q0 -13 10 -24q10 -7 21 -7q13 0 22 9q4 5 6 9q3 6 3 13v0q0 12 -9 22t-22 10q-14 0 -24 -12q-7 -9 -7 -20zM310 687q-42 -115 -169 -462h339q-43 116 -169 462h-1zM285 732q-13 5 -22 15q-9 9 -12 15q-9 16 -9 33v2q0 23 15 42q7 9 12 12q19 14 42 14
q28 0 49 -21q20 -20 20 -48t-22 -51q-11 -9 -22 -13q3 -3 36 -99q78 -211 232 -633v0h-41q-3 4 -16 44q-18 47 -53 142h-366q-1 -1 -32 -84q-12 -34 -37 -102h-42v0q62 169 246 673q20 54 22 59z" />
    <glyph glyph-name="AE" unicode="&#xc6;" horiz-adv-x="870" 
d="M814 732l2 -2v-35l-2 -2h-299q0 -1 -2 -2v-306h244l2 -1v-36l-2 -1h-244v-307h301q1 0 2 -2v-36q0 -1 -2 -2h-341q-1 0 -2 2v230h-272q-137 -229 -142 -232h-37q-1 0 -3 2q112 182 446 729l1 1h350zM468 673q-61 -101 -244 -403h245v403h-1z" />
    <glyph glyph-name="Ccedilla" unicode="&#xc7;" horiz-adv-x="676" 
d="M353 0q-1 -5 -4 -21q40 0 55 -34q5 -13 5 -25q0 -31 -25 -52q-20 -14 -43 -14q-34 0 -59 32v1q1 0 14 10q14 10 15 10q13 -18 30 -18q16 0 27 14q6 8 6 16v2q0 10 -6 18q-7 5 -16 5h-3q-10 0 -29 -8q-5 -1 -16 -5v1q4 18 15 72q-91 16 -167 91q-52 57 -76 122
q-28 74 -28 147v4q0 150 100 264q95 100 217 100h3q127 0 225 -109q39 -50 48 -75v-1q-8 -4 -34 -16v0q0 3 -27 45q-90 116 -215 116q-116 0 -205 -105q-72 -99 -72 -222q0 -135 88 -237q36 -38 60 -51q63 -37 123 -37h14q74 0 146 53q35 28 58 59q18 26 31 52v0
q9 -4 35 -16v-1q-6 -17 -36 -60q-48 -60 -94 -85q-69 -42 -147 -42h-13z" />
    <glyph glyph-name="Egrave" unicode="&#xc8;" horiz-adv-x="483" 
d="M193 917q38 -22 149 -91v-1q-5 -8 -21 -33l-148 92v0q5 9 20 33zM87 732h341v0v-39v-1h-303v-307h246v-38h-246v-307h303v-1v-39v0h-341h-1v732h1z" />
    <glyph glyph-name="Eacute" unicode="&#xc9;" horiz-adv-x="483" 
d="M87 732h341v0v-39v-1h-303v-307h246v-38h-246v-307h303v-1v-39v0h-341h-1v732h1zM342 884v0l-148 -92q-5 9 -21 33v1q37 23 148 91q6 -8 21 -33z" />
    <glyph glyph-name="Ecircumflex" unicode="&#xca;" horiz-adv-x="483" 
d="M87 732h341v0v-39v-1h-303v-307h246v-38h-246v-307h303v-1v-39v0h-341h-1v732h1zM242 935h30q25 -30 99 -117q-7 -6 -30 -26h-1q-20 25 -83 100q-80 -96 -84 -100q-21 18 -29 26q32 39 98 117z" />
    <glyph glyph-name="Edieresis" unicode="&#xcb;" horiz-adv-x="483" 
d="M181 867h2q16 0 25 -16q4 -7 4 -14q0 -14 -12 -24q-8 -5 -17 -5h-2q-13 0 -22 11q-7 8 -7 17v3q0 13 15 24q7 4 14 4zM332 867v0q17 0 27 -16q3 -7 3 -14q0 -14 -13 -24q-8 -5 -16 -5h-2q-12 0 -22 11q-6 8 -6 17v3q0 13 13 24q8 4 16 4zM87 732h341v0v-39v-1h-303v-307
h246v-38h-246v-307h303v-1v-39v0h-341h-1v732h1z" />
    <glyph glyph-name="Igrave" unicode="&#xcc;" horiz-adv-x="212" 
d="M125 732v-732v0h-38h-1v732h39zM41 917q38 -22 149 -91v-1q-5 -8 -21 -33l-148 92v0q5 9 20 33z" />
    <glyph glyph-name="Iacute" unicode="&#xcd;" horiz-adv-x="212" 
d="M125 732v-732v0h-38h-1v732h39zM190 884v0l-148 -92q-5 9 -21 33v1q37 23 148 91q6 -8 21 -33z" />
    <glyph glyph-name="Icircumflex" unicode="&#xce;" horiz-adv-x="212" 
d="M125 732v-732v0h-38h-1v732h39zM91 935h30q25 -30 99 -117q-8 -6 -31 -26v0l-84 100q-80 -96 -83 -100q-21 18 -30 26z" />
    <glyph glyph-name="Idieresis" unicode="&#xcf;" horiz-adv-x="212" 
d="M125 732v-732v0h-38h-1v732h39zM45 867h1q17 0 26 -16q4 -7 4 -14q0 -14 -13 -24q-8 -5 -16 -5h-3q-12 0 -21 11q-7 8 -7 17v3q0 13 14 24q7 4 15 4zM165 867h1q17 0 26 -16q4 -7 4 -14q0 -14 -13 -24q-8 -5 -16 -5h-3q-12 0 -21 11q-7 8 -7 17v3q0 13 14 24q7 4 15 4z
" />
    <glyph glyph-name="Eth" unicode="&#xd0;" horiz-adv-x="667" 
d="M159 386h113v-39h-113v-307h127q99 0 187 75q43 42 57 69q51 85 51 182q0 137 -96 239q-88 87 -208 87h-118v-306zM119 347h-63v39h63v345l1 1h162q130 0 232 -100q106 -113 106 -267q0 -129 -80 -234q-36 -44 -66 -66q-34 -24 -61 -36q-56 -22 -72 -22q-24 -7 -78 -7
h-143l-1 1v346z" />
    <glyph glyph-name="Ntilde" unicode="&#xd1;" horiz-adv-x="679" 
d="M88 732h60q5 -6 44 -72q120 -207 361 -619v0v690q1 0 2 1h37l1 -1v-730l-1 -1h-60q-3 2 -28 48q-126 214 -376 643h-1v-690l-1 -1h-36q-3 0 -4 2v729zM434 823q-10 -11 -20 -16q-15 -8 -31 -8q-15 0 -49 15t-48 15q-16 0 -30 -9q-9 -5 -20 -19v45q9 11 19 16q14 9 31 9
q16 0 50 -16q33 -15 47 -15q16 0 29 9q10 5 22 19v-45z" />
    <glyph glyph-name="Ograve" unicode="&#xd2;" horiz-adv-x="740" 
d="M308 917q38 -22 149 -91v-1q-5 -8 -21 -33l-148 92v0q5 9 20 33zM372 732h3q124 0 223 -103q33 -38 48 -66q50 -94 50 -188v-15q0 -116 -68 -219q-13 -21 -49 -58q-10 -8 -30 -23q-81 -60 -177 -60q-123 0 -219 97q-104 114 -104 268v3q0 152 104 268q98 96 219 96z
M89 365q0 -134 90 -237q49 -48 78 -60q15 -9 50 -20q33 -8 58 -8h15q82 0 162 64q43 41 56 64q58 91 58 196v4q0 126 -80 227q-88 97 -204 97q-118 0 -208 -104q-75 -99 -75 -223z" />
    <glyph glyph-name="Oacute" unicode="&#xd3;" horiz-adv-x="740" 
d="M288 825v1q37 23 148 91q5 -8 21 -33v0q-37 -23 -149 -92q-5 9 -20 33zM372 732h3q124 0 223 -103q33 -38 48 -66q50 -94 50 -188v-15q0 -116 -68 -219q-13 -21 -49 -58q-10 -8 -30 -23q-81 -60 -177 -60q-123 0 -219 97q-104 114 -104 268v3q0 152 104 268q98 96 219 96
zM89 365q0 -134 90 -237q49 -48 78 -60q15 -9 50 -20q33 -8 58 -8h15q82 0 162 64q43 41 56 64q58 91 58 196v4q0 126 -80 227q-88 97 -204 97q-118 0 -208 -104q-75 -99 -75 -223z" />
    <glyph glyph-name="Ocircumflex" unicode="&#xd4;" horiz-adv-x="740" 
d="M357 935h31q25 -30 99 -117q-8 -6 -31 -26v0l-84 100q-80 -96 -83 -100q-21 18 -30 26q33 39 98 117zM372 732h3q124 0 223 -103q33 -38 48 -66q50 -94 50 -188v-15q0 -116 -68 -219q-13 -21 -49 -58q-10 -8 -30 -23q-81 -60 -177 -60q-123 0 -219 97q-104 114 -104 268
v3q0 152 104 268q98 96 219 96zM89 365q0 -134 90 -237q49 -48 78 -60q15 -9 50 -20q33 -8 58 -8h15q82 0 162 64q43 41 56 64q58 91 58 196v4q0 126 -80 227q-88 97 -204 97q-118 0 -208 -104q-75 -99 -75 -223z" />
    <glyph glyph-name="Otilde" unicode="&#xd5;" horiz-adv-x="740" 
d="M372 732h3q124 0 223 -103q33 -38 48 -66q50 -94 50 -188v-15q0 -116 -68 -219q-13 -21 -49 -58q-10 -8 -30 -23q-81 -60 -177 -60q-123 0 -219 97q-104 114 -104 268v3q0 152 104 268q98 96 219 96zM89 365q0 -134 90 -237q49 -48 78 -60q15 -9 50 -20q33 -8 58 -8h15
q82 0 162 64q43 41 56 64q58 91 58 196v4q0 126 -80 227q-88 97 -204 97q-118 0 -208 -104q-75 -99 -75 -223zM466 827q-10 -11 -20 -16q-15 -8 -31 -8q-15 0 -50 15q-34 15 -48 15q-15 0 -29 -9q-9 -5 -20 -19v45q9 11 19 16q14 9 30 9t50 -16q34 -15 48 -15q16 0 29 9
q10 5 22 19v-45z" />
    <glyph glyph-name="Odieresis" unicode="&#xd6;" horiz-adv-x="740" 
d="M297 867h1q17 0 26 -16q4 -7 4 -14q0 -14 -13 -24q-8 -5 -16 -5h-3q-12 0 -21 11q-7 8 -7 17v3q0 13 14 24q7 4 15 4zM447 867h1q16 0 26 -16q3 -7 3 -14q0 -14 -12 -24q-8 -5 -17 -5h-1q-13 0 -23 11q-6 8 -6 17v3q0 13 14 24q8 4 15 4zM372 732h3q124 0 223 -103
q33 -38 48 -66q50 -94 50 -188v-15q0 -116 -68 -219q-13 -21 -49 -58q-10 -8 -30 -23q-81 -60 -177 -60q-123 0 -219 97q-104 114 -104 268v3q0 152 104 268q98 96 219 96zM89 365q0 -134 90 -237q49 -48 78 -60q15 -9 50 -20q33 -8 58 -8h15q82 0 162 64q43 41 56 64
q58 91 58 196v4q0 126 -80 227q-88 97 -204 97q-118 0 -208 -104q-75 -99 -75 -223z" />
    <glyph glyph-name="multiply" unicode="&#xd7;" horiz-adv-x="375" 
d="M188 208l-112 -112l-28 28l112 112q-28 27 -112 111v1q7 6 28 27v0q28 -28 112 -111l111 111h1q6 -7 27 -28v0l-111 -111q27 -28 111 -112l-28 -28q-28 28 -111 112z" />
    <glyph glyph-name="Oslash" unicode="&#xd8;" horiz-adv-x="740" 
d="M528 640q-71 52 -156 52q-118 0 -208 -104q-75 -99 -75 -223q0 -134 90 -237l17 -17q111 176 332 529zM557 613q-82 -132 -329 -528q16 -12 29 -17q15 -9 50 -20q33 -8 58 -8h15q82 0 162 64q43 41 56 64q58 91 58 196v4q0 126 -80 227q-9 9 -19 18zM176 76
q-12 11 -23 21q-104 114 -104 268v3q0 152 104 268q98 96 219 96h3q94 0 173 -59l45 72q9 -5 34 -21l-48 -76l19 -19q33 -38 48 -66q50 -94 50 -188v-15q0 -116 -68 -219q-13 -21 -49 -58q-10 -8 -30 -23q-81 -60 -177 -60q-89 0 -165 52q-16 -24 -46 -73h-1l-32 20v1z" />
    <glyph glyph-name="Ugrave" unicode="&#xd9;" horiz-adv-x="654" 
d="M264 917q37 -22 148 -91v-1q-5 -8 -21 -33l-148 92v0q5 9 21 33zM87 732h36l1 -1v-467q0 -144 93 -203q18 -10 41 -17q19 -4 56 -4h25q60 0 85 15q57 25 88 100q17 47 17 98v478q1 0 2 1h37l1 -1v-450q0 -100 -25 -150q-9 -26 -27 -48q-61 -83 -164 -83h-52
q-128 0 -189 124q-27 61 -27 132v475z" />
    <glyph glyph-name="Uacute" unicode="&#xda;" horiz-adv-x="654" 
d="M243 825v1q37 23 148 91q5 -8 21 -33v0l-148 -92q-6 9 -21 33zM87 732h36l1 -1v-467q0 -144 93 -203q18 -10 41 -17q19 -4 56 -4h25q60 0 85 15q57 25 88 100q17 47 17 98v478q1 0 2 1h37l1 -1v-450q0 -100 -25 -150q-9 -26 -27 -48q-61 -83 -164 -83h-52
q-128 0 -189 124q-27 61 -27 132v475z" />
    <glyph glyph-name="Ucircumflex" unicode="&#xdb;" horiz-adv-x="654" 
d="M312 935h31q24 -30 98 -117q-8 -6 -30 -26v0l-84 100q-80 -96 -83 -100q-21 18 -31 26zM87 732h36l1 -1v-467q0 -144 93 -203q18 -10 41 -17q19 -4 56 -4h25q60 0 85 15q57 25 88 100q17 47 17 98v478q1 0 2 1h37l1 -1v-450q0 -100 -25 -150q-9 -26 -27 -48
q-61 -83 -164 -83h-52q-128 0 -189 124q-27 61 -27 132v475z" />
    <glyph glyph-name="Udieresis" unicode="&#xdc;" horiz-adv-x="654" 
d="M252 867v0q17 0 27 -16q3 -7 3 -14q0 -14 -13 -24q-8 -5 -16 -5h-2q-12 0 -22 11q-6 8 -6 17v3q0 13 13 24q8 4 16 4zM401 867h2q16 0 25 -16q4 -7 4 -14q0 -14 -12 -24q-8 -5 -17 -5h-2q-13 0 -22 11q-7 8 -7 17v3q0 13 15 24q7 4 14 4zM87 732h36l1 -1v-467
q0 -144 93 -203q18 -10 41 -17q19 -4 56 -4h25q60 0 85 15q57 25 88 100q17 47 17 98v478q1 0 2 1h37l1 -1v-450q0 -100 -25 -150q-9 -26 -27 -48q-61 -83 -164 -83h-52q-128 0 -189 124q-27 61 -27 132v475z" />
    <glyph glyph-name="Yacute" unicode="&#xdd;" horiz-adv-x="535" 
d="M184 825v1q37 23 148 91q5 -8 21 -33v0q-37 -23 -149 -92q-5 9 -20 33zM15 732h46q4 -4 207 -335h1q52 84 206 335h47v0q-58 -95 -234 -379v-352l-1 -1h-39l-1 1v355q-58 94 -232 375v1z" />
    <glyph glyph-name="Thorn" unicode="&#xde;" horiz-adv-x="623" 
d="M116 537v-341h226q98 0 152 42q15 13 21 22q8 11 13 20q12 24 12 59v54q0 43 -20 72q-14 22 -39 39q-53 33 -142 33h-223zM116 576h227q105 0 170 -47q66 -51 66 -133v-60q0 -77 -59 -127q-36 -30 -88 -42q-42 -11 -87 -11h-229v-156v0h-39h-1v732h1h39v0v-156z" />
    <glyph glyph-name="germandbls" unicode="&#xdf;" horiz-adv-x="623" 
d="M263 732h3q98 0 156 -48q38 -36 38 -85v-2q0 -55 -48 -117q-40 -57 -40 -91q0 -45 83 -85q121 -72 121 -156q0 -57 -57 -108q-58 -44 -124 -44q-98 0 -166 100q-2 3 -6 11q32 20 34 20q36 -63 98 -86q21 -5 36 -5h9q55 0 104 44q32 36 32 69q0 70 -135 140q-68 44 -68 99
v4q0 47 58 125q29 43 29 82q0 69 -103 89q-30 4 -54 4q-106 0 -140 -86q-7 -19 -7 -30v-575l-1 -1h-37l-2 1v579q0 29 28 76q52 76 159 76z" />
    <glyph glyph-name="agrave" unicode="&#xe0;" 
d="M200 660q38 -22 149 -91v-1q-5 -8 -21 -32q-37 22 -148 91v1zM264 475h2q101 0 171 -91q3 -4 7 -11v0v96q1 0 2 2h36q0 -1 1 -2v-463l-1 -2h-36q0 1 -2 2v96v0q-39 -63 -115 -91q-32 -11 -65 -11q-99 0 -170 88q-48 68 -48 148v3q0 97 68 171q66 65 150 65zM84 238
q0 -98 76 -163q49 -36 104 -36q76 0 132 62q48 59 48 137t-51 138q-55 60 -129 60q-84 0 -144 -79q-36 -56 -36 -119z" />
    <glyph glyph-name="aacute" unicode="&#xe1;" 
d="M180 568v1q37 23 148 91q5 -8 21 -32v-1q-37 -23 -149 -91zM264 475h2q101 0 171 -91q3 -4 7 -11v0v96q1 0 2 2h36q0 -1 1 -2v-463l-1 -2h-36q0 1 -2 2v96v0q-39 -63 -115 -91q-32 -11 -65 -11q-99 0 -170 88q-48 68 -48 148v3q0 97 68 171q66 65 150 65zM84 238
q0 -98 76 -163q49 -36 104 -36q76 0 132 62q48 59 48 137t-51 138q-55 60 -129 60q-84 0 -144 -79q-36 -56 -36 -119z" />
    <glyph glyph-name="acircumflex" unicode="&#xe2;" 
d="M249 677h31q24 -29 98 -116q-8 -6 -30 -25v0q-21 24 -84 99q-80 -95 -84 -99q-20 17 -29 25q32 39 98 116zM264 475h2q101 0 171 -91q3 -4 7 -11v0v96q1 0 2 2h36q0 -1 1 -2v-463l-1 -2h-36q0 1 -2 2v96v0q-39 -63 -115 -91q-32 -11 -65 -11q-99 0 -170 88
q-48 68 -48 148v3q0 97 68 171q66 65 150 65zM84 238q0 -98 76 -163q49 -36 104 -36q76 0 132 62q48 59 48 137t-51 138q-55 60 -129 60q-84 0 -144 -79q-36 -56 -36 -119z" />
    <glyph glyph-name="atilde" unicode="&#xe3;" 
d="M264 475h2q101 0 171 -91q3 -4 7 -11v0v96q1 0 2 2h36q0 -1 1 -2v-463l-1 -2h-36q0 1 -2 2v96v0q-39 -63 -115 -91q-32 -11 -65 -11q-99 0 -170 88q-48 68 -48 148v3q0 97 68 171q66 65 150 65zM84 238q0 -98 76 -163q49 -36 104 -36q76 0 132 62q48 59 48 137t-51 138
q-55 60 -129 60q-84 0 -144 -79q-36 -56 -36 -119zM362 569q-10 -11 -20 -16q-15 -8 -31 -8q-15 0 -50 15q-34 15 -48 15q-16 0 -30 -9q-9 -5 -20 -19v45q9 11 19 16q14 9 31 9q16 0 50 -16q34 -15 48 -15q16 0 29 9q10 5 22 19v-45z" />
    <glyph glyph-name="adieresis" unicode="&#xe4;" 
d="M188 610h1q17 0 27 -16q3 -6 3 -14q0 -15 -12 -24q-8 -5 -17 -5h-2q-12 0 -22 10q-6 9 -6 18v2q0 15 13 24q8 5 15 5zM339 610h1q16 0 25 -16q4 -6 4 -14q0 -15 -13 -24q-8 -5 -16 -5h-2q-13 0 -22 10q-7 9 -7 18v2q0 15 15 24q7 5 15 5zM264 475h2q101 0 171 -91
q3 -4 7 -11v0v96q1 0 2 2h36q0 -1 1 -2v-463l-1 -2h-36q0 1 -2 2v96v0q-39 -63 -115 -91q-32 -11 -65 -11q-99 0 -170 88q-48 68 -48 148v3q0 97 68 171q66 65 150 65zM84 238q0 -98 76 -163q49 -36 104 -36q76 0 132 62q48 59 48 137t-51 138q-55 60 -129 60
q-84 0 -144 -79q-36 -56 -36 -119z" />
    <glyph glyph-name="aring" unicode="&#xe5;" 
d="M264 648q26 0 44 -21q12 -16 12 -35q0 -26 -21 -44q-16 -12 -35 -12q-28 0 -45 23q-11 16 -11 32v2q0 20 16 38q16 17 40 17zM240 592q0 -15 15 -22q5 -2 9 -2q13 0 21 13q3 6 3 11q0 13 -13 21q-6 3 -11 3q-14 0 -21 -15q-3 -4 -3 -9zM264 475h2q101 0 171 -91
q3 -4 7 -11v0v96q1 0 2 2h36q0 -1 1 -2v-463l-1 -2h-36q0 1 -2 2v96v0q-39 -63 -115 -91q-32 -11 -65 -11q-99 0 -170 88q-48 68 -48 148v3q0 97 68 171q66 65 150 65zM84 238q0 -98 76 -163q49 -36 104 -36q76 0 132 62q48 59 48 137t-51 138q-55 60 -129 60
q-84 0 -144 -79q-36 -56 -36 -119z" />
    <glyph glyph-name="ae" unicode="&#xe6;" horiz-adv-x="932" 
d="M84 238q0 -98 76 -163q49 -36 104 -36q76 0 132 62q48 59 48 137t-51 138q-55 60 -129 60q-84 0 -144 -79q-36 -56 -36 -119zM496 274h353q-1 18 -20 61q-37 69 -102 92q-26 9 -55 9q-79 0 -136 -70q-29 -36 -40 -92zM483 118v-112l-1 -2h-36q0 1 -2 2v96v0
q-39 -63 -115 -91q-32 -11 -65 -11q-99 0 -170 88q-48 68 -48 148v3q0 97 68 171q66 65 150 65h2q101 0 171 -91q3 -4 7 -11v0v96q1 0 2 2h36q0 -1 1 -2v-113q16 28 38 53q66 66 150 66h2q89 0 157 -74q61 -73 61 -165h-1h-398q0 -88 66 -152q52 -45 114 -45q83 0 140 74
q16 24 25 46q1 1 1 4q37 -12 37 -14q-11 -29 -29 -56q-70 -93 -175 -93q-99 0 -170 88q-10 15 -18 30z" />
    <glyph glyph-name="ccedilla" unicode="&#xe7;" horiz-adv-x="478" 
d="M253 0q-1 -5 -5 -21q41 0 56 -34q4 -13 4 -25q0 -31 -25 -52q-19 -14 -43 -14q-34 0 -59 32v1q2 0 15 10t14 10q14 -18 31 -18q15 0 27 14q5 8 5 16v2q0 10 -6 18q-6 5 -15 5h-4q-10 0 -28 -8q-5 -1 -16 -5v1q3 18 13 73q-61 14 -111 67q-61 72 -61 164v3q0 97 68 171
q66 65 150 65h2q93 0 163 -79q5 -8 16 -24q-30 -20 -32 -20q-60 84 -149 84q-84 0 -143 -79q-36 -56 -36 -119q0 -98 76 -163q48 -36 104 -36q87 0 146 82q2 3 3 5q31 -18 32 -21q-41 -67 -118 -96q-32 -9 -64 -9h-10z" />
    <glyph glyph-name="egrave" unicode="&#xe8;" horiz-adv-x="512" 
d="M188 660q38 -22 149 -91v-1q-5 -8 -21 -32q-37 22 -148 91v1zM76 274h353q-1 18 -20 61q-37 69 -102 92q-26 9 -55 9q-79 0 -136 -70q-29 -36 -40 -92zM251 475h2q89 0 157 -74q61 -73 61 -165h-1h-398q0 -88 66 -152q52 -45 114 -45q83 0 140 74q16 24 25 46q1 1 1 4
q37 -12 37 -14q-11 -29 -29 -56q-70 -93 -175 -93q-99 0 -170 88q-48 68 -48 148v2q0 98 68 171q66 66 150 66z" />
    <glyph glyph-name="eacute" unicode="&#xe9;" horiz-adv-x="512" 
d="M337 628v-1q-37 -23 -148 -91q-5 8 -21 32v1q37 23 148 91q6 -8 21 -32zM76 274h353q-1 18 -20 61q-37 69 -102 92q-26 9 -55 9q-79 0 -136 -70q-29 -36 -40 -92zM251 475h2q89 0 157 -74q61 -73 61 -165h-1h-398q0 -88 66 -152q52 -45 114 -45q83 0 140 74q16 24 25 46
q1 1 1 4q37 -12 37 -14q-11 -29 -29 -56q-70 -93 -175 -93q-99 0 -170 88q-48 68 -48 148v2q0 98 68 171q66 66 150 66z" />
    <glyph glyph-name="ecircumflex" unicode="&#xea;" horiz-adv-x="512" 
d="M237 677h31q24 -29 98 -116q-7 -6 -30 -25v0q-21 24 -84 99q-80 -95 -84 -99q-20 17 -29 25q32 39 98 116zM76 274h353q-1 18 -20 61q-37 69 -102 92q-26 9 -55 9q-79 0 -136 -70q-29 -36 -40 -92zM251 475h2q89 0 157 -74q61 -73 61 -165h-1h-398q0 -88 66 -152
q52 -45 114 -45q83 0 140 74q16 24 25 46q1 1 1 4q37 -12 37 -14q-11 -29 -29 -56q-70 -93 -175 -93q-99 0 -170 88q-48 68 -48 148v2q0 98 68 171q66 66 150 66z" />
    <glyph glyph-name="edieresis" unicode="&#xeb;" horiz-adv-x="512" 
d="M176 610h1q17 0 27 -16q3 -6 3 -14q0 -15 -12 -24q-8 -5 -17 -5h-2q-12 0 -22 10q-6 9 -6 18v2q0 15 13 24q8 5 15 5zM327 610h1q16 0 25 -16q4 -6 4 -14q0 -15 -13 -24q-8 -5 -16 -5h-2q-13 0 -22 10q-7 9 -7 18v2q0 15 15 24q7 5 15 5zM76 274h353q-1 18 -20 61
q-37 69 -102 92q-26 9 -55 9q-79 0 -136 -70q-29 -36 -40 -92zM251 475h2q89 0 157 -74q61 -73 61 -165h-1h-398q0 -88 66 -152q52 -45 114 -45q83 0 140 74q16 24 25 46q1 1 1 4q37 -12 37 -14q-11 -29 -29 -56q-70 -93 -175 -93q-99 0 -170 88q-48 68 -48 148v2
q0 98 68 171q66 66 150 66z" />
    <glyph glyph-name="igrave" unicode="&#xec;" horiz-adv-x="196" 
d="M118 475v-475h-1h-38v0v475h39zM34 660q37 -22 149 -91v-1q-6 -8 -22 -32q-37 22 -148 91v1q6 8 21 32z" />
    <glyph glyph-name="iacute" unicode="&#xed;" horiz-adv-x="196" 
d="M118 475v-475h-1h-38v0v475h39zM183 628v-1q-37 -23 -148 -91q-6 8 -22 32v1q38 23 149 91q5 -8 21 -32z" />
    <glyph glyph-name="icircumflex" unicode="&#xee;" horiz-adv-x="196" 
d="M118 475v-475h-1h-38v0v475h39zM83 677h30q25 -29 99 -116q-7 -6 -30 -25h-1q-20 24 -83 99q-80 -95 -83 -99q-22 17 -31 25q33 39 99 116z" />
    <glyph glyph-name="idieresis" unicode="&#xef;" horiz-adv-x="196" 
d="M118 475v-475h-1h-38v0v475h39zM48 610v0q17 0 27 -16q3 -6 3 -14q0 -15 -13 -24q-8 -5 -16 -5h-2q-12 0 -22 10q-6 9 -6 18v2q0 15 13 24q8 5 16 5zM148 610v0q17 0 27 -16q3 -6 3 -14q0 -15 -13 -24q-8 -5 -16 -5h-2q-12 0 -22 10q-6 9 -6 18v2q0 15 13 24q8 5 16 5z
" />
    <glyph glyph-name="eth" unicode="&#xf0;" horiz-adv-x="569" 
 />
    <glyph glyph-name="ntilde" unicode="&#xf1;" horiz-adv-x="528" 
d="M248 475h34q96 0 146 -70q26 -38 26 -90v-314l-2 -1h-36l-1 1v308q0 94 -83 119q-24 8 -56 8h-21q-97 0 -129 -68q-10 -23 -10 -58v-309l-1 -1h-37l-2 1v466q1 0 2 1h37l1 -1v-54q51 62 132 62zM364 570q-10 -11 -20 -16q-15 -8 -31 -8q-15 0 -50 15q-33 15 -47 15
q-16 0 -30 -9q-9 -5 -20 -19v45q9 11 19 16q14 9 31 9q16 0 49 -16q34 -15 48 -15q16 0 29 9q10 5 22 19v-45z" />
    <glyph glyph-name="ograve" unicode="&#xf2;" horiz-adv-x="527" 
d="M200 660q37 -22 148 -91v-1q-5 -8 -21 -32q-37 22 -148 91v1q5 8 21 32zM263 475h2q98 0 167 -86q50 -69 50 -148v-7q0 -95 -70 -170q-64 -64 -149 -64q-99 0 -170 88q-48 68 -48 148v3q0 97 68 171q66 65 150 65zM84 238q0 -98 76 -163q48 -36 104 -36q75 0 131 62
q49 59 49 137t-52 138q-55 60 -129 60q-84 0 -143 -79q-36 -56 -36 -119z" />
    <glyph glyph-name="oacute" unicode="&#xf3;" horiz-adv-x="527" 
d="M179 568v1q37 23 148 91q5 -8 21 -32v-1q-37 -23 -148 -91q-6 8 -21 32zM263 475h2q98 0 167 -86q50 -69 50 -148v-7q0 -95 -70 -170q-64 -64 -149 -64q-99 0 -170 88q-48 68 -48 148v3q0 97 68 171q66 65 150 65zM84 238q0 -98 76 -163q48 -36 104 -36q75 0 131 62
q49 59 49 137t-52 138q-55 60 -129 60q-84 0 -143 -79q-36 -56 -36 -119z" />
    <glyph glyph-name="ocircumflex" unicode="&#xf4;" horiz-adv-x="527" 
d="M248 677h31q25 -29 98 -116q-7 -6 -29 -25h-1q-21 24 -83 99q-80 -95 -84 -99q-21 17 -30 25q33 39 98 116zM263 475h2q98 0 167 -86q50 -69 50 -148v-7q0 -95 -70 -170q-64 -64 -149 -64q-99 0 -170 88q-48 68 -48 148v3q0 97 68 171q66 65 150 65zM84 238
q0 -98 76 -163q48 -36 104 -36q75 0 131 62q49 59 49 137t-52 138q-55 60 -129 60q-84 0 -143 -79q-36 -56 -36 -119z" />
    <glyph glyph-name="otilde" unicode="&#xf5;" horiz-adv-x="527" 
d="M263 475h2q98 0 167 -86q50 -69 50 -148v-7q0 -95 -70 -170q-64 -64 -149 -64q-99 0 -170 88q-48 68 -48 148v3q0 97 68 171q66 65 150 65zM84 238q0 -98 76 -163q48 -36 104 -36q75 0 131 62q49 59 49 137t-52 138q-55 60 -129 60q-84 0 -143 -79q-36 -56 -36 -119z
M363 569q-10 -11 -20 -16q-15 -8 -31 -8q-15 0 -50 15q-33 15 -47 15q-16 0 -30 -9q-9 -5 -20 -19v45q9 11 19 16q14 9 31 9q16 0 49 -16q34 -15 48 -15q16 0 29 9q10 5 22 19v-45z" />
    <glyph glyph-name="odieresis" unicode="&#xf6;" horiz-adv-x="527" 
d="M188 610h1q16 0 26 -16q4 -6 4 -14q0 -15 -13 -24q-8 -5 -17 -5h-1q-13 0 -23 10q-6 9 -6 18v2q0 15 14 24q7 5 15 5zM338 610h1q17 0 26 -16q3 -6 3 -14q0 -15 -12 -24q-8 -5 -16 -5h-3q-12 0 -21 10q-7 9 -7 18v2q0 15 14 24q8 5 15 5zM263 475h2q98 0 167 -86
q50 -69 50 -148v-7q0 -95 -70 -170q-64 -64 -149 -64q-99 0 -170 88q-48 68 -48 148v3q0 97 68 171q66 65 150 65zM84 238q0 -98 76 -163q48 -36 104 -36q75 0 131 62q49 59 49 137t-52 138q-55 60 -129 60q-84 0 -143 -79q-36 -56 -36 -119z" />
    <glyph glyph-name="divide" unicode="&#xf7;" horiz-adv-x="432" 
d="M216 420h1q19 0 31 -19q4 -7 4 -16q0 -17 -15 -28q-9 -6 -20 -6h-2q-15 0 -26 13q-8 9 -8 20v3q0 17 17 28q9 5 18 5zM216 140h1q19 0 31 -19q4 -8 4 -17q0 -17 -15 -28q-9 -7 -20 -7h-2q-15 0 -26 14q-8 9 -8 20v3q0 17 17 29q9 5 18 5zM48 264h336v0v-39v0h-336v39z
" />
    <glyph glyph-name="oslash" unicode="&#xf8;" horiz-adv-x="527" 
d="M357 408q-42 28 -94 28q-84 0 -143 -79q-36 -56 -36 -119q0 -86 57 -146q72 105 216 316zM387 383l-216 -316q44 -28 93 -28q75 0 131 62q49 59 49 137t-52 138q-3 4 -5 7zM379 440q11 15 42 62q8 -5 32 -21q-11 -17 -45 -66q13 -11 24 -26q50 -69 50 -148v-7
q0 -95 -70 -170q-64 -64 -149 -64q-63 0 -114 35q-13 -18 -38 -55v-1q-8 5 -32 21v0l40 60q-14 12 -26 28q-48 68 -48 148v3q0 97 68 171q66 65 150 65h2q63 0 114 -35z" />
    <glyph glyph-name="ugrave" unicode="&#xf9;" horiz-adv-x="528" 
d="M199 660q37 -22 149 -91v-1q-6 -8 -21 -32q-37 22 -148 91v1zM76 475h36q0 -1 1 -2v-309q0 -90 81 -117q26 -7 53 -7h32q85 0 121 62q12 26 12 63v308q1 0 1 2h38q0 -1 1 -2v-465q-1 0 -1 -1h-38l-1 1v53q-52 -61 -129 -61h-40q-83 0 -135 57q-34 42 -34 103v313z" />
    <glyph glyph-name="uacute" unicode="&#xfa;" horiz-adv-x="528" 
d="M348 628v-1q-37 -23 -148 -91q-6 8 -21 32v1q37 23 148 91q5 -8 21 -32zM76 475h36q0 -1 1 -2v-309q0 -90 81 -117q26 -7 53 -7h32q85 0 121 62q12 26 12 63v308q1 0 1 2h38q0 -1 1 -2v-465q-1 0 -1 -1h-38l-1 1v53q-52 -61 -129 -61h-40q-83 0 -135 57q-34 42 -34 103
v313z" />
    <glyph glyph-name="ucircumflex" unicode="&#xfb;" horiz-adv-x="528" 
d="M248 677h30q25 -29 98 -116q-7 -6 -29 -25h-1q-21 24 -83 99q-80 -95 -84 -99q-21 17 -30 25q33 39 99 116zM76 475h36q0 -1 1 -2v-309q0 -90 81 -117q26 -7 53 -7h32q85 0 121 62q12 26 12 63v308q1 0 1 2h38q0 -1 1 -2v-465q-1 0 -1 -1h-38l-1 1v53q-52 -61 -129 -61
h-40q-83 0 -135 57q-34 42 -34 103v313z" />
    <glyph glyph-name="udieresis" unicode="&#xfc;" horiz-adv-x="528" 
d="M187 610h1q16 0 26 -16q3 -6 3 -14q0 -15 -12 -24q-8 -5 -17 -5h-1q-13 0 -23 10q-6 9 -6 18v2q0 15 14 24q8 5 15 5zM337 610h1q17 0 26 -16q4 -6 4 -14q0 -15 -13 -24q-8 -5 -16 -5h-3q-12 0 -21 10q-7 9 -7 18v2q0 15 14 24q7 5 15 5zM76 475h36q0 -1 1 -2v-309
q0 -90 81 -117q26 -7 53 -7h32q85 0 121 62q12 26 12 63v308q1 0 1 2h38q0 -1 1 -2v-465q-1 0 -1 -1h-38l-1 1v53q-52 -61 -129 -61h-40q-83 0 -135 57q-34 42 -34 103v313z" />
    <glyph glyph-name="yacute" unicode="&#xfd;" horiz-adv-x="472" 
d="M17 475h43q1 0 11 -26q54 -135 164 -405h1q44 108 176 431h41v0h1q-71 -173 -282 -690q-1 0 -1 -1h-42v1q21 52 85 207q-49 121 -197 483v0zM151 568v1q37 23 148 91q5 -8 21 -32v-1q-37 -23 -148 -91q-6 8 -21 32z" />
    <glyph glyph-name="thorn" unicode="&#xfe;" horiz-adv-x="510" 
d="M116 235q0 -99 76 -164q50 -38 105 -38q76 0 133 64q50 60 50 138t-52 140q-56 61 -131 61q-85 0 -145 -80q-36 -56 -36 -121zM116 372q40 64 115 92q31 11 65 11h3q98 0 169 -87q51 -70 51 -149v-8q0 -96 -71 -172q-65 -64 -152 -64q-100 0 -172 89q-2 5 -8 14v-298v0
h-39h-1v932h1h39v0v-360z" />
    <glyph glyph-name="ydieresis" unicode="&#xff;" horiz-adv-x="472" 
d="M160 610h1q16 0 26 -16q4 -6 4 -14q0 -15 -13 -24q-8 -5 -17 -5h-1q-13 0 -23 10q-6 9 -6 18v2q0 15 14 24q7 5 15 5zM310 610h1q17 0 26 -16q3 -6 3 -14q0 -15 -12 -24q-8 -5 -16 -5h-3q-12 0 -21 10q-7 9 -7 18v2q0 15 14 24q8 5 15 5zM17 475h43q1 0 11 -26
q54 -135 164 -405h1q44 108 176 431h41v0h1q-71 -173 -282 -690q-1 0 -1 -1h-42v1q21 52 85 207q-49 121 -197 483v0z" />
    <glyph glyph-name="dotlessi" unicode="&#x131;" horiz-adv-x="257" 
 />
    <glyph glyph-name="OE" unicode="&#x152;" horiz-adv-x="1044" 
d="M372 732h3q124 0 223 -103q33 -38 48 -67q49 -93 49 -187v-16q0 -115 -67 -217q-13 -22 -50 -59q-9 -8 -28 -23q-82 -60 -178 -60q-123 0 -219 97q-104 114 -104 269v3q0 152 104 267q97 96 219 96zM89 366q0 -135 89 -239q50 -48 79 -59q16 -10 50 -19q33 -9 58 -9h15
q82 0 162 63q43 42 56 64q59 91 59 197v5q0 125 -81 225q-88 98 -204 98q-118 0 -208 -104q-75 -99 -75 -222zM658 732h341h1v-39h-1h-302v-307h245v-39h-245v-307h302q1 0 1 -1v-38l-1 -1h-341l-1 1v731h1z" />
    <glyph glyph-name="oe" unicode="&#x153;" horiz-adv-x="922" 
d="M263 475h2q97 0 168 -86q49 -70 49 -148v-7q0 -96 -70 -171q-64 -63 -149 -63q-99 0 -170 88q-48 68 -48 148v3q0 98 68 171q66 65 150 65zM84 238q0 -98 75 -163q50 -36 104 -36q75 0 131 63q50 59 50 136q0 78 -51 138q-56 60 -130 60q-84 0 -144 -78q-35 -57 -35 -120
zM486 274h354q-1 18 -20 61q-37 69 -102 92q-26 9 -56 9q-78 0 -136 -70q-29 -36 -40 -92zM662 475h2q89 0 157 -73q61 -73 61 -165q0 -1 -1 -1h-398q0 -88 66 -152q52 -45 114 -45q83 0 141 75q16 23 25 45v4q37 -12 37 -14q-11 -28 -29 -56q-70 -93 -175 -93
q-98 0 -169 88q-48 68 -48 149v1q0 99 68 172q65 65 149 65z" />
    <glyph glyph-name="circumflex" unicode="&#x2c6;" horiz-adv-x="469" 
d="M220 935h30q25 -30 98 -117q-7 -6 -29 -26h-1q-21 25 -83 100q-80 -96 -84 -100q-21 18 -30 26z" />
    <glyph glyph-name="caron" unicode="&#x2c7;" horiz-adv-x="352" 
d="M250 792h-30q-25 30 -99 117q7 6 30 26h1q20 -25 83 -99q80 95 84 99q21 -18 29 -26q-32 -39 -98 -117z" />
    <glyph glyph-name="uni02c9" unicode="&#x2c9;" horiz-adv-x="389" 
d="M121 842h250v-1v-38v0h-250v39z" />
    <glyph glyph-name="breve" unicode="&#x2d8;" horiz-adv-x="227" 
 />
    <glyph glyph-name="dotaccent" unicode="&#x2d9;" horiz-adv-x="301" 
d="M150 865h1q17 0 26 -16q3 -6 3 -14q0 -15 -12 -24q-8 -6 -16 -6h-3q-12 0 -21 11q-7 9 -7 17v3q0 15 14 24q8 5 15 5z" />
    <glyph glyph-name="ring" unicode="&#x2da;" horiz-adv-x="380" 
d="M159 796q0 -13 10 -24q10 -7 21 -7q13 0 22 9q4 5 6 9q3 6 3 13v0q0 12 -9 22t-22 10q-14 0 -25 -12q-6 -9 -6 -20zM190 865q28 0 49 -21q20 -20 20 -48t-22 -51q-13 -11 -28 -15q-9 -3 -19 -3q-28 0 -49 20q-8 9 -11 15q-9 16 -9 33v2q0 23 15 42q8 9 12 12q19 14 42 14
z" />
    <glyph glyph-name="ogonek" unicode="&#x2db;" horiz-adv-x="434" 
 />
    <glyph glyph-name="tilde" unicode="&#x2dc;" horiz-adv-x="425" 
d="M304 827q-9 -11 -20 -17q-14 -8 -28 -8q-15 0 -44 15q-29 16 -44 16q-12 0 -27 -9q-9 -6 -20 -20v44q10 12 19 17q15 8 28 8q16 0 45 -15q30 -16 43 -16t27 9q9 6 21 20v-44z" />
    <glyph glyph-name="hungarumlaut" unicode="&#x2dd;" horiz-adv-x="369" 
 />
    <glyph glyph-name="uni037e" unicode="&#x37e;" horiz-adv-x="206" 
d="M100 475h1q16 0 26 -16q4 -7 4 -14q0 -14 -13 -24q-8 -5 -17 -5h-1q-13 0 -23 11q-6 8 -6 17v3q0 13 14 24q7 4 15 4zM101 59q15 0 24 -13q6 -9 6 -22q0 -36 -44 -76q-12 -10 -15 -12q-4 5 -12 16q29 28 29 49q-10 5 -15 15q-3 6 -3 13q0 15 13 25q8 5 17 5z" />
    <glyph glyph-name="endash" unicode="&#x2013;" horiz-adv-x="495" 
d="M35 265h425v-1v-38v-1h-425v40z" />
    <glyph glyph-name="emdash" unicode="&#x2014;" horiz-adv-x="675" 
d="M50 269h574h1v-38q0 -1 -1 -1h-574v39z" />
    <glyph glyph-name="quoteleft" unicode="&#x2018;" horiz-adv-x="197" 
d="M84 667q-14 0 -24 13q-5 8 -5 22q0 37 43 75q13 11 15 13l12 -15q-29 -28 -29 -51q11 -4 15 -14q4 -6 4 -14q0 -14 -14 -24q-8 -5 -17 -5z" />
    <glyph glyph-name="quoteright" unicode="&#x2019;" horiz-adv-x="197" 
d="M113 790q15 0 24 -13q6 -9 6 -22q0 -36 -44 -75q-12 -11 -15 -13q-4 5 -12 16q29 28 29 49q-10 5 -15 15q-3 6 -3 13q0 15 13 25q8 5 17 5z" />
    <glyph glyph-name="quotesinglbase" unicode="&#x201a;" horiz-adv-x="179" 
d="M73 57q15 0 24 -13q6 -8 6 -21q0 -37 -44 -76q-12 -11 -15 -12l-12 15q29 28 29 50q-10 4 -15 15q-3 5 -3 13q0 15 13 24q8 5 17 5z" />
    <glyph glyph-name="quotedblleft" unicode="&#x201c;" horiz-adv-x="348" 
d="M100 667q-15 0 -25 13q-6 8 -6 22q0 37 44 75q12 11 15 13l12 -15q-29 -28 -29 -51q10 -4 15 -14q3 -6 3 -14q0 -14 -13 -24q-8 -5 -16 -5zM200 667q-15 0 -25 13q-6 8 -6 22q0 37 44 75q12 11 15 13l12 -15q-29 -28 -29 -51q10 -4 15 -14q3 -6 3 -14q0 -14 -13 -24
q-8 -5 -16 -5z" />
    <glyph glyph-name="quotedblright" unicode="&#x201d;" horiz-adv-x="348" 
d="M249 790q15 0 24 -13q6 -9 6 -22q0 -36 -44 -75q-12 -11 -15 -13q-4 5 -12 16q29 28 29 49q-10 5 -15 15q-3 6 -3 13q0 15 13 25q8 5 17 5zM149 790q15 0 24 -13q6 -9 6 -22q0 -36 -44 -75q-12 -11 -15 -13q-4 5 -12 16q29 28 29 49q-10 5 -15 15q-3 6 -3 13q0 15 13 25
q8 5 17 5z" />
    <glyph glyph-name="quotedblbase" unicode="&#x201e;" horiz-adv-x="279" 
d="M173 57q15 0 24 -13q6 -8 6 -21q0 -37 -44 -76q-12 -11 -15 -12l-12 15q29 28 29 50q-10 4 -15 15q-3 5 -3 13q0 15 13 24q8 5 17 5zM73 57q15 0 24 -13q6 -8 6 -21q0 -37 -44 -76q-12 -11 -15 -12l-12 15q29 28 29 50q-10 4 -15 15q-3 5 -3 13q0 15 13 24q8 5 17 5z" />
    <glyph glyph-name="dagger" unicode="&#x2020;" horiz-adv-x="443" 
d="M242 389h142v-39h-142v-350h-39v350h-143v1v38v0h143v143v0h38h1v-143z" />
    <glyph glyph-name="daggerdbl" unicode="&#x2021;" horiz-adv-x="443" 
d="M242 389h142v-39h-142v-166h142v-39h-142v-145h-39v145h-143v0v39v0h143v166h-143v1v38v0h143v143v0h38h1v-143z" />
    <glyph glyph-name="bullet" unicode="&#x2022;" horiz-adv-x="500" 
 />
    <glyph glyph-name="ellipsis" unicode="&#x2026;" horiz-adv-x="460" 
d="M79 60h1q16 0 26 -16q3 -7 3 -15q0 -14 -12 -24q-8 -5 -17 -5h-1q-13 0 -23 11q-6 9 -6 17v3q0 14 14 24q8 5 15 5zM229 60h1q17 0 26 -16q4 -7 4 -15q0 -14 -13 -24q-8 -5 -16 -5h-3q-12 0 -21 11q-7 9 -7 17v3q0 14 14 24q7 5 15 5zM379 60h1q16 0 26 -16q3 -7 3 -15
q0 -14 -12 -24q-8 -5 -17 -5h-1q-13 0 -23 11q-6 9 -6 17v3q0 14 14 24q8 5 15 5z" />
    <glyph glyph-name="perthousand" unicode="&#x2030;" horiz-adv-x="963" 
d="M176 707h1q49 0 87 -37q36 -37 36 -86q0 -52 -40 -91q-24 -21 -49 -27q-18 -5 -34 -5q-49 0 -86 36q-16 16 -21 26q-16 29 -16 58v5q0 40 27 75q14 16 22 21q34 25 73 25zM98 584v0q0 -35 26 -60q24 -20 53 -20q32 0 57 25q12 13 15 22q7 16 7 31v4q0 28 -22 54
q-25 23 -57 23q-36 0 -62 -29q-17 -23 -17 -50zM494 241q53 0 92 -40q32 -37 32 -82q0 -50 -36 -87q-18 -17 -31 -23q-27 -13 -55 -13h-3q-45 0 -83 33q-15 16 -20 26q-18 30 -18 63v1q0 49 36 87q38 35 86 35zM415 119q0 -36 29 -62q23 -18 50 -18q38 0 64 32q16 22 16 48
q0 34 -28 60q-24 19 -49 19h-5q-25 0 -49 -19q-28 -26 -28 -60zM592 711q-112 -175 -447 -700h-1h-49v0l448 700h49zM703 118q0 -36 29 -62q23 -18 50 -18q38 0 64 32q16 22 16 48q0 34 -28 60q-24 19 -49 19h-5q-25 0 -49 -19q-28 -26 -28 -60zM782 240q53 0 92 -40
q32 -37 32 -82q0 -50 -36 -87q-18 -17 -31 -23q-27 -13 -55 -13h-3q-45 0 -83 33q-15 16 -20 26q-18 30 -18 63v1q0 49 36 87q38 35 86 35z" />
    <glyph glyph-name="guilsinglleft" unicode="&#x2039;" horiz-adv-x="294" 
d="M35 233q17 12 145 95q14 10 41 28q6 -8 23 -32q-5 -4 -155 -102q-4 -2 -11 -7q41 -28 166 -109v-1q-21 -31 -23 -32l-186 123v37z" />
    <glyph glyph-name="guilsinglright" unicode="&#x203a;" horiz-adv-x="294" 
d="M260 196q-47 -31 -188 -123q0 1 -21 32v1q41 27 165 109q-3 1 -11 7q-150 98 -154 102q7 11 21 32q11 -7 42 -28q128 -83 146 -95v-37z" />
    <glyph glyph-name="fraction" unicode="&#x2044;" horiz-adv-x="97" 
d="M233 684h39v0q-96 -177 -383 -708q0 -1 -1 -1h-38v1q96 177 382 708h1z" />
    <glyph glyph-name="franc" unicode="&#x20a3;" horiz-adv-x="472" 
d="M147 202v-202h-1h-38h-1v205h-67v36h67v491h1h341v0v-39v-1h-302v-307h256v-38h-256v-106h118v0v-38v-1h-118z" />
    <glyph glyph-name="uni20a4" unicode="&#x20a4;" horiz-adv-x="587" 
d="M324 668q56 0 107 -34q10 -6 21 -18l-28 -28q-17 16 -30 22q-34 18 -70 18q-53 0 -100 -39q-33 -30 -33 -78v-3q0 -43 26 -96q3 -5 8 -15h189l1 -1v-38q-1 0 -1 -1h-172q8 -25 8 -30q1 0 1 -3h163q0 -1 1 -1v-39h-1h-162q0 -10 -8 -36q-7 -23 -17 -41q-14 -26 -38 -56
q-13 -18 -44 -50v0q24 6 46 6q61 0 103 -42q44 -38 88 -38q59 0 126 70q9 -9 28 -27q-77 -82 -155 -82q-62 0 -122 56q-29 24 -68 24q-56 0 -130 -46q-3 -2 -10 -7v0q-6 7 -24 30q25 22 52 47q33 31 56 56q31 36 44 56q10 15 17 31q7 11 12 27q4 18 4 22h-128h-1v39l1 1h127
q0 4 -9 28q-1 2 -2 5h-116l-1 1v38q0 1 1 1h97q-29 60 -29 109v6q0 42 21 79q7 9 22 25q58 52 129 52z" />
    <glyph glyph-name="uni20a7" unicode="&#x20a7;" horiz-adv-x="1160" 
d="M588 732h39v0v-257h141v0v-39v0h-141v-311q0 -36 17 -60q8 -10 15 -13q18 -13 36 -13h1q22 0 58 16q5 2 6 2q5 -11 16 -35q-12 -6 -39 -15q-24 -7 -38 -7h-7q-24 0 -52 16q-7 4 -20 17q-16 17 -23 38q-9 26 -9 52v313h-92h-1v39h1h92v257zM956 484h1q71 0 122 -47
q16 -16 21 -25q4 -5 5 -8q-12 -7 -35 -19q-14 23 -41 40q-33 19 -73 19q-55 0 -90 -28q-14 -13 -17 -19q-14 -21 -14 -44v-4q0 -32 30 -50q16 -10 46 -20q37 -12 98 -23q23 -7 39 -15q12 -5 25 -16q13 -10 20 -20q25 -33 25 -72q0 -44 -30 -82q-13 -14 -20 -19
q-16 -12 -28 -17q-41 -20 -88 -20q-62 0 -112 35q-9 6 -25 22l-7 7q-14 17 -20 29q-4 5 -5 10q18 10 34 18q27 -51 78 -71q29 -10 57 -10q46 0 84 22q25 17 37 47q6 15 6 28v3q0 30 -25 55q-18 16 -43 24q-11 3 -50 10q-73 17 -104 35q-61 30 -61 93q0 45 32 82q14 14 21 18
q45 32 107 32zM125 692v-359h151q19 0 45 10q59 24 89 84q19 40 19 86v14q0 70 -45 118q-15 15 -24 21q-41 26 -89 26h-146zM87 732h186q54 0 103 -29q13 -9 26 -20l21 -21q9 -13 17 -25q29 -50 29 -108v-18q0 -71 -42 -132q-7 -11 -25 -30q-22 -20 -34 -27q-16 -10 -36 -17
q-28 -11 -67 -11h-140v-294v0h-38h-1v732h1z" />
    <glyph glyph-name="uni20ac" unicode="&#x20ac;" horiz-adv-x="667" 
d="M400 645h4q73 0 141 -34q16 -8 36 -21q15 -10 35 -28q-8 -10 -26 -29q-21 18 -35 27q-71 45 -152 45q-91 0 -167 -54q-12 -10 -29 -26q-23 -22 -28 -33q-15 -20 -25 -38t-19 -50q-1 -3 -3 -8h452v-40h-459q-1 -15 -1 -28v-4q0 -23 4 -48h456v-39h-446q14 -42 39 -75
q9 -13 27 -33q21 -20 35 -29q74 -53 164 -53q92 0 169 58q10 7 18 15l26 -29q-44 -40 -95 -60q-57 -23 -118 -23h-2q-94 0 -177 54q-17 11 -43 34q-25 26 -32 37q-17 22 -29 44q-12 24 -23 56q0 4 -1 4h-69v0v39v0h61q-4 25 -4 45v10q0 12 1 25h-58v0v39v1h64q1 0 2 9
q8 27 18 50q12 28 33 57q10 15 29 36q24 23 33 29q26 20 51 33q70 35 143 35z" />
    <glyph glyph-name="uni2116" unicode="&#x2116;" horiz-adv-x="1067" 
d="M639 40h349v-1v-39v0h-349v40zM811 635h5q47 0 93 -30q12 -8 30 -23q12 -12 19 -22q17 -21 25 -38q31 -60 31 -130q0 -77 -38 -142q-11 -18 -31 -39q-20 -22 -30 -27q-48 -33 -100 -33h-3q-57 0 -108 38q-24 20 -39 39q-12 17 -20 31q-33 62 -33 130v7q0 61 28 120
q9 17 23 37q9 12 26 30l7 7q35 29 69 38q24 7 46 7zM652 393v-1q0 -76 43 -136q5 -8 21 -25q3 -3 8 -7q41 -34 89 -34q55 0 101 45q16 17 25 30q36 58 36 127q0 71 -37 128q-6 11 -19 25q-16 17 -26 23q-37 27 -79 27h-2q-55 0 -101 -46q-18 -19 -26 -33q-33 -56 -33 -123z
M87 732h59q2 -1 11 -20q36 -69 107 -205q27 -51 106 -203q30 -57 119 -228q4 -7 15 -28v684v0h39v0v-732v0h-59l-11 21q-34 66 -103 198q-24 46 -97 184q-32 61 -128 245q-4 9 -17 36h-1v-684v0h-40h-1v732h1z" />
    <glyph glyph-name="trademark" unicode="&#x2122;" horiz-adv-x="1347" 
d="M653 150v582v0h61l76 -144q31 -58 122 -232q7 -12 26 -48q1 1 36 68q4 8 88 168q33 63 99 187q1 0 1 1h60h1v-582h-41v535q-20 -38 -81 -152q-26 -50 -105 -200q-9 -17 -37 -71h-41q-1 0 -12 21q-35 68 -107 204q-23 44 -94 177q-9 18 -11 21v-535h-41zM356 150v543h-207
v39v0h453h1v-39h-208v-543h-39z" />
    <glyph glyph-name="partialdiff" unicode="&#x2202;" horiz-adv-x="507" 
 />
    <glyph glyph-name="Delta" unicode="&#x2206;" horiz-adv-x="540" 
 />
    <glyph glyph-name="product" unicode="&#x220f;" horiz-adv-x="757" 
 />
    <glyph glyph-name="summation" unicode="&#x2211;" horiz-adv-x="603" 
 />
    <glyph glyph-name="minus" unicode="&#x2212;" horiz-adv-x="392" 
d="M38 364h313v0v-39v0h-313v39z" />
    <glyph glyph-name="uni2215" unicode="&#x2215;" horiz-adv-x="97" 
d="M233 684h39v0q-96 -177 -383 -708q0 -1 -1 -1h-38v1q96 177 382 708h1z" />
    <glyph glyph-name="uni2219" unicode="&#x2219;" horiz-adv-x="301" 
d="M150 396h1q17 0 26 -16q3 -7 3 -14q0 -14 -12 -24q-8 -6 -16 -6h-3q-12 0 -21 12q-7 8 -7 16v4q0 13 14 24q8 4 15 4z" />
    <glyph glyph-name="radical" unicode="&#x221a;" horiz-adv-x="507" 
 />
    <glyph glyph-name="infinity" unicode="&#x221e;" horiz-adv-x="515" 
 />
    <glyph glyph-name="integral" unicode="&#x222b;" horiz-adv-x="332" 
 />
    <glyph glyph-name="approxequal" unicode="&#x2248;" horiz-adv-x="424" 
d="M364 335q-18 -16 -32 -21q-25 -10 -46 -9q-8 0 -16 1q-15 0 -66 23q-51 18 -70 18q-17 0 -36 -9q-11 -6 -29 -19q3 14 8 53q12 11 25 16q20 9 37 9q20 0 60 -14q60 -31 89 -31t45 13q18 10 36 24q-3 -23 -5 -54zM359 218q-18 -16 -32 -21q-23 -9 -43 -9h-3q-8 0 -16 1
q-15 0 -66 23q-51 18 -70 18q-17 0 -36 -9q-11 -6 -29 -19q3 14 8 53q12 11 25 16q20 9 37 9q20 0 60 -14q60 -31 89 -31t45 13q18 10 36 24q-3 -23 -5 -54z" />
    <glyph glyph-name="lessequal" unicode="&#x2264;" horiz-adv-x="385" 
d="M43 0h299q0 -1 1 -1v-39h-1h-299v40zM306 574q6 -8 25 -30q-2 -2 -144 -119q-32 -26 -97 -79v-8q6 -5 122 -100q39 -32 119 -98q-23 -29 -25 -30q-45 37 -134 110q-30 24 -121 99v46q41 33 164 134q22 19 91 75z" />
    <glyph glyph-name="greaterequal" unicode="&#x2265;" horiz-adv-x="385" 
d="M343 -40h-299h-1v39l1 1h299v-40zM171 499q41 -33 164 -134v-46q-30 -25 -122 -99q-33 -28 -133 -110q-2 1 -25 30q39 33 119 98q116 95 122 100v8q-25 20 -97 79q-143 117 -144 119q8 10 25 30q22 -19 91 -75z" />
    <glyph glyph-name="unif001" unicode="&#xf001;" horiz-adv-x="736" 
 />
    <glyph glyph-name="unif002" unicode="&#xf002;" horiz-adv-x="465" 
 />
    <glyph glyph-name="fi" unicode="&#xfb01;" horiz-adv-x="465" 
d="M278 732h13h1v-39q-1 0 -1 -1h-11q-57 0 -93 -48q-39 -52 -39 -149v-20h143l1 -1v-38h-1h-143v-435v-1h-38q-1 0 -1 1v435h-95v0v38v1h95v23q0 112 51 176q14 16 25 26q25 21 63 29q15 3 30 3zM387 475v-474q0 -1 -1 -1h-38v1v474h39zM366 732h3q12 0 22 -11q8 -10 8 -18
v-6q0 -11 -11 -21q-9 -8 -21 -8q-17 0 -27 16q-5 8 -5 14v4q0 14 13 24q10 6 18 6z" />
    <glyph glyph-name="fl" unicode="&#xfb02;" horiz-adv-x="465" 
d="M277 732h14h1v-39q-1 0 -1 -1h-11q-57 0 -93 -48q-39 -52 -39 -149v-20h143h1v-39h-1h-143v-436v0h-39v0v436h-95h-1v39h1h95v24q0 111 51 176q13 16 25 25q26 20 63 28q16 4 29 4zM391 732v-732v0h-39v0v732h39z" />
  </font>
</defs>
</svg>
